<?xml version="1.0" standalone="no"?>
<!DOCTYPE svg PUBLIC "-//W3C//DTD SVG 1.1//EN" "http://www.w3.org/Graphics/SVG/1.1/DTD/svg11.dtd" >
<!--
2013-9-30: Created.
-->
<svg>
<metadata>
Created by iconfont
</metadata>
<defs>

<font id="iconfont" horiz-adv-x="1024" >
  <font-face
    font-family="iconfont"
    font-weight="500"
    font-stretch="normal"
    units-per-em="1024"
    ascent="896"
    descent="-128"
  />
    <missing-glyph />
    
    <glyph glyph-name="chengshineilao" unicode="&#59220;" d="M50.980571 18.139429s116.370286-82.944 195.364572-82.944c75.922286 0 149.357714 84.772571 266.24 84.772571 80.896 0 143.725714-84.772571 230.838857-84.772571 107.008 0 195.291429 61.44 195.291429 61.44 14.774857 12.8 29.476571-0.731429 34.377142-16.237715l1.170286-4.681143c3.072-10.386286 1.828571-22.674286-32.914286-45.348571 0 0-72.850286-58.368-197.266285-58.368-92.745143 0-149.357714 84.699429-230.838857 84.699429-106.349714 0-190.976-84.699429-266.24-84.699429-113.225143 0-213.430857 82.870857-213.430858 82.870857-13.019429 14.116571-21.723429 34.962286-17.993142 42.422857l4.096 8.265143c6.509714 12.653714 14.555429 24.137143 31.305142 12.580572z m0 147.894857s116.370286-82.870857 195.364572-82.870857c75.922286 0 149.357714 84.699429 266.24 84.699428 80.896 0 143.725714-84.699429 230.838857-84.699428 107.008 0 195.291429 61.44 195.291429 61.44 16.237714 14.116571 32.402286-3.657143 35.547428-20.918858 3.072-10.459429 1.828571-22.089143-32.914286-45.348571 0 0-72.850286-58.368-197.266285-58.368-92.745143 0-149.357714 84.699429-230.838857 84.699429-106.349714 0-190.976-84.699429-266.24-84.699429-113.225143 0-213.430857 82.870857-213.430858 82.870857-13.019429 14.116571-21.723429 34.962286-17.993142 42.349714 7.460571 14.701714 14.921143 34.962286 35.401142 20.845715zM500.809143 896l218.404571-193.974857V811.300571h87.04v-187.245714L1024 430.006857h-108.836571v-232.594286c-10.605714-15.36-61.659429-42.422857-87.113143-42.422857-141.165714 0-190.390857 106.203429-326.656 106.203429-136.192 0-213.942857-106.203429-283.062857-106.203429a157.257143 157.257143 0 0 0-108.836572 42.422857v232.594286H0L500.809143 896z"  horiz-adv-x="1024" />

    
    <glyph glyph-name="xia" unicode="&#58955;" d="M402.752 749.248l-320-320c-24.992-24.992-24.992-65.504 0-90.496l320-320c24.992-24.992 65.504-24.992 90.496 0s24.992 65.504 0 90.496l-210.752 210.752h613.504c35.36 0 64 28.64 64 64s-28.64 64-64 64h-613.504l210.752 210.752c12.48 12.512 18.752 28.864 18.752 45.248s-6.24 32.768-18.752 45.248c-24.992 24.992-65.504 24.992-90.496 0z"  horiz-adv-x="1024" />

    
    <glyph glyph-name="icon-life-alarm" unicode="&#58958;" d="M507.90627555 600.12316445c-141.54069333 0-256.29354667-114.72782222-256.29354666-256.26851556v-314.88455111h516.23367111V343.85464889c0 141.54183111-114.72668445 256.26851555-256.26851555 256.26851556h-3.6716089z m-297.53571555-153.48622223c4.55111111 22.59854222-10.11029333 44.60316445-32.70883555 49.15427556l-120.85475556 24.25287111c-22.59854222 4.52494222-44.62933333-10.13532445-49.15427556-32.73386667a42.16604445 42.16604445 0 0 1-0.36067555-14.50666667c2.56-16.85845333 15.38503111-31.08067555 33.07064889-34.64760888l120.85475555-24.25287112c22.62357333-4.52608 44.62819555 10.10915555 49.15313778 32.73386667z m-27.69351111 280.00483556l76.97749333-96.26510223c14.40085333-17.99623111 40.67214222-20.91918222 58.69454223-6.5171911 17.99623111 14.40312889 20.91804445 40.67441778 6.51605333 58.69568l-77.00138667 96.24120888c-14.37582222 17.99509333-40.64711111 20.91804445-58.66951111 6.54108445-12.10140445-9.67111111-17.37614222-24.66816-15.20412445-38.94044445a41.30816 41.30816 0 0 1 8.68807112-19.75523555z m332.288-36.40775111c23.06389333-0.54272 42.17287111 17.71292445 42.71445333 40.75064888l-0.28444444 123.23498667c0.54385778 23.03886222-17.71178667 42.17287111-40.74951111 42.71559111-23.06503111 0.54272-42.19904-17.71292445-42.74289778-40.75064888l0.28444444-123.23271112c-0.0512-2.48376889 0.10353778-4.94023111 0.46648889-7.31932444 2.99918222-19.64942222 19.75523555-34.93205333 40.31146667-35.39854222z m193.28-75.55299556c17.29991111-15.23029333 43.69863111-13.55093333 58.92892444 3.74897778l81.42392889 92.54115556c15.23029333 17.32494222 13.54865778 43.69863111-3.74897777 58.92892444-17.32494222 15.23029333-43.69863111 13.54865778-58.92892445-3.74897778l-81.44782222-92.54343111c-8.48213333-9.64380445-11.71456-22.10702222-9.92938667-33.89667555 1.41994667-9.36049778 6.04842667-18.28181333 13.70225778-25.03111112z m303.9232-151.00586666c-3.46567111 22.80675555-24.76942222 38.47623111-47.55114667 34.98666666l-121.86282667-18.54008889c-22.80675555-3.46453333-38.47509333-24.74439111-35.01169777-47.55114667 3.46567111-22.80448 24.77169778-38.47395555 47.57731555-35.00942222l121.83779556 18.56398222c22.80561778 3.46453333 38.47395555 24.74666667 35.00942222 47.55114667zM859.01539555-66.56910221999999c0-32.86357333-26.63196445-59.47164445-59.49781333-59.47164445H206.85482667c-32.86584889 0-59.49781333 26.60807111-59.49781334 59.47164445 0 32.86357333 26.63196445 59.47164445 59.49781334 59.47164444h592.66389333c32.86584889 0 59.49781333-26.60807111 59.49781333-59.47164444z"  horiz-adv-x="1024" />

    
    <glyph glyph-name="forward" unicode="&#58959;" d="M621.24800001 18.751999999999953l320 320c24.992 24.992 24.992 65.504 0 90.496l-320 320c-24.992 24.992-65.504 24.992-90.496 0s-24.992-65.504 0-90.496l210.75199999-210.75199999-613.504-1e-8c-35.36 0-64-28.64-64-64s28.64-64 64-64l613.504-1e-8-210.75199999-210.75199999c-12.48-12.51200001-18.752-28.864-18.75200001-45.248s6.24-32.768 18.75200001-45.248c24.992-24.992 65.504-24.992 90.496 0z"  horiz-adv-x="1024" />

    
    <glyph glyph-name="arrow-left" unicode="&#58953;" d="M210.4 384.9l430.9 430.9c22.8 22.8 59.8 22.8 82.6 0 22.8-22.8 22.8-59.8 0-82.6l-348.2-348.3 348.3-348.3c22.8-22.8 22.8-59.8 0-82.6-22.8-22.8-59.8-22.8-82.6 0l-431 430.9zM210.4 384.9z"  horiz-adv-x="1024" />

    
    <glyph glyph-name="gprs" unicode="&#59320;" d="M64.303027 335.804325c0-215.677131 174.84926-390.526391 390.526391-390.526391 113.74867 0 215.800951 48.921199 287.163255 126.521578L190.808232 622.96758C113.207853 551.589926 64.303027 449.537645 64.303027 335.804325zM532.771581 822.721043c-23.921829 0-43.290969-19.383466-43.290969-43.306318 0-23.89113 19.36914-43.24492 43.290969-43.24492 94.130867-0.01535 178.967044-38.035268 240.660128-99.713003 61.693084-61.739133 99.713003-146.528238 99.713003-240.674455 0-23.89113 19.36914-43.290969 43.259246-43.290969 23.892153 0 43.291992 19.399839 43.291992 43.290969C959.665251 631.592005 768.565888 822.674994 532.771581 822.721043zM505.199619 662.313703c-23.922852 0-43.291992-19.383466-43.291992-43.259246 0-23.906479 19.36914-43.291992 43.291992-43.291992 114.590851-0.202615 207.349465-92.929506 207.53673-207.551056 0-23.892153 19.399839-43.291992 43.290969-43.291992 23.922852 0 43.291992 19.399839 43.291992 43.291992C799.256888 530.646941 667.636175 662.281981 505.199619 662.313703zM630.61398 423.057551c0 38.971593-31.564903 70.550823-70.550823 70.582545-39.018665-0.030699-70.550823-31.610952-70.582545-70.582545 0.030699-38.971593 31.626301-70.550823 70.582545-70.566172C599.018378 352.506728 630.61398 384.085958 630.61398 423.057551z"  horiz-adv-x="1024" />

    
    <glyph glyph-name="weixing2" unicode="&#58951;" d="M702.171 143.441c27.632 0 48.762 21.13 48.762 47.137 0 11.378-4.876 22.756-11.378 30.883l39.010 39.010c19.505 19.505 19.505 50.387 0 68.267l-206.425 206.425 92.648 92.648 94.273-94.273c19.505-19.505 50.387-19.505 68.267 0l32.508 32.508c19.505 19.505 19.505 50.387 0 68.267l-235.683 235.683c-19.505 19.505-50.387 19.505-68.267 0l-32.508-32.508c-19.505-19.505-19.505-50.387 0-68.267l94.273-94.273-92.648-92.648-206.425 206.425c-19.505 19.505-50.387 19.505-68.267 0l-152.787-152.787c-19.505-19.505-19.505-50.387 0-68.267l206.425-206.425-92.648-92.648-94.273 94.273c-19.505 19.505-50.387 19.505-68.267 0l-32.508-32.508c-19.505-19.505-19.505-50.387 0-68.267l235.683-235.683c19.505-19.505 50.387-19.505 68.267 0l32.508 32.508c19.505 19.505 19.505 50.387 0 68.267l-94.273 94.273 92.648 92.648 206.425-206.425c19.505-19.505 50.387-19.505 68.267 0l45.511 45.511c8.127-6.502 19.505-9.752 30.883-9.752zM897.219 237.714h-71.517c0-43.886-17.879-86.146-50.387-117.029-32.508-30.883-76.394-48.762-123.53-48.762v-68.267c136.533 0 245.435 105.651 245.435 234.057zM952.483 237.714c0-157.663-134.908-286.070-299.073-286.070v-68.267c204.8 0 370.59 159.289 370.59 352.711h-71.517z"  horiz-adv-x="1024" />

    
    <glyph glyph-name="dian" unicode="&#58952;" d="M788.48 485.888h-112.128c-24.064 0-92.16-11.776-115.2 2.56-4.608 16.384 10.24 46.08 14.336 60.416 11.776 41.472 23.04 82.432 34.816 124.416L660.48 854.016c6.656 23.552-24.064 33.792-36.864 15.872L218.112 313.344c-9.216-12.8 3.584-30.72 17.92-30.72h164.352c11.264 0 54.784 7.168 61.952-3.584 6.656-8.704-6.144-35.84-8.704-45.568-30.72-106.496-60.416-212.992-90.112-319.488-6.656-23.552 24.064-33.792 36.864-15.872l404.992 556.544c9.728 13.312-2.56 31.232-16.896 31.232z"  horiz-adv-x="1024" />

    
    <glyph glyph-name="rili" unicode="&#59013;" d="M270.984 672.331c-27.146 0-49.157 22.011-49.157 49.161V846.843C221.828 873.989 243.838 896 270.984 896c27.15 0 49.161-22.011 49.161-49.157v-125.351c0-27.15-22.01-49.161-49.161-49.161zM751.266 672.331c-27.146 0-49.158 22.011-49.158 49.161V846.843C702.107 873.989 724.119 896 751.266 896c27.15 0 49.156-22.011 49.156-49.157v-125.351c0-27.15-22.006-49.161-49.156-49.161zM311.836 4.064h-146.92c-15.533 0-28.124 12.592-28.124 28.125V179.108c0 15.534 12.591 28.125 28.124 28.125h146.92c15.533 0 28.124-12.591 28.124-28.125v-146.919c0-15.533-12.591-28.125-28.124-28.125zM585.458 264.11h-146.92c-15.533 0-28.125 12.591-28.125 28.125V439.154c0 15.533 12.592 28.125 28.125 28.125h146.92c15.533 0 28.124-12.592 28.124-28.125v-146.919c0-15.534-12.591-28.125-28.124-28.125zM585.458 4.064h-146.92c-15.533 0-28.125 12.592-28.125 28.125V179.108c0 15.534 12.592 28.125 28.125 28.125h146.92c15.533 0 28.124-12.591 28.124-28.125v-146.919c0-15.533-12.591-28.125-28.124-28.125zM859.083 264.11h-146.92c-15.533 0-28.124 12.591-28.124 28.125V439.154c0 15.533 12.591 28.125 28.124 28.125h146.92c15.533 0 28.125-12.592 28.125-28.125v-146.919c0-15.534-12.592-28.125-28.125-28.125zM859.083 4.064h-146.92c-15.533 0-28.124 12.592-28.124 28.125V179.108c0 15.534 12.591 28.125 28.124 28.125h146.92c15.533 0 28.125-12.591 28.125-28.125v-146.919c0-15.533-12.592-28.125-28.125-28.125zM910.608 779.086h-59.312v-57.594c0-54.678-44.481-99.161-99.156-99.161-54.676 0-99.158 44.483-99.158 99.161v57.594H371.02v-57.594c0-54.678-44.483-99.161-99.161-99.161-54.675 0-99.157 44.483-99.157 99.161v57.594h-59.311C50.77 779.086 0.005 728.321 0.005 665.7v-680.315C0.006-77.235 50.771-128 113.392-128h797.216c62.621 0 113.385 50.765 113.385 113.386V665.701c0 62.621-50.764 113.385-113.385 113.385z m53.385-793.7c0-29.437-23.949-53.386-53.385-53.386H113.392c-29.437 0-53.386 23.949-53.386 53.386V534.98h903.987v-549.594z"  horiz-adv-x="1024" />

    
    <glyph glyph-name="naozhong" unicode="&#58950;" d="M954.8 523.7c-42.9 119.7-134 218.5-250.1 270.9-17.6 8-38.4 0.1-46.3-17.5-8-17.6-0.1-38.3 17.5-46.3 98.9-44.7 176.5-128.8 213-230.7 5.1-14.3 18.6-23.2 33-23.2 3.9 0 7.9 0.7 11.8 2.1 18.2 6.5 27.6 26.5 21.1 44.7zM345.9 730.9c17.6 8 25.5 28.7 17.5 46.3-8 17.6-28.7 25.5-46.3 17.5C201 742.3 109.9 643.5 67 523.7c-6.5-18.2 2.9-38.2 21.2-44.8 3.9-1.4 7.9-2.1 11.8-2.1 14.4 0 27.8 8.9 33 23.2 36.4 102.1 114.1 186.2 212.9 230.9zM510.9 708.7c-201.7 0-365.2-163.5-365.2-365.2 0-89.6 32.3-171.7 85.9-235.3l-69.8-82.9c-12.5-14.8-10.6-36.9 4.2-49.3 6.6-5.5 14.6-8.2 22.5-8.2 10 0 19.9 4.2 26.8 12.4l66.5 78.9c62.7-50.6 142.4-80.8 229.2-80.8 88.8 0 170.1 31.7 233.4 84.3l69.4-82.4c6.9-8.2 16.8-12.4 26.8-12.4 8 0 16 2.7 22.5 8.2 14.8 12.5 16.7 34.5 4.2 49.3l-73.5 87.2c51.4 62.9 82.3 143.4 82.3 231 0 201.7-163.5 365.2-365.2 365.2z m122.5-407.6h-125c-19.3 0-35 15.7-35 35v122c0 19.3 15.7 35 35 35s35-15.7 35-35v-87h90c19.3 0 35-15.7 35-35s-15.7-35-35-35z"  horiz-adv-x="1024" />

    
    <glyph glyph-name="zuojiantou" unicode="&#58966;" d="M33.98328556 341.37896716L844.32696088 341.37896716 637.3996785 142.17610834000004c-5.2969054-5.29828624-5.2969054-13.88573532 0-19.18540239l41.56330878-41.56468962a13.56952277 13.56952277 0 0 1 19.18678323 0l260.49009791 250.77312103c0.29964246 0.25269386 0.59652324 0.51367279 0.8795956 0.79536432l1.39188755 1.39188755 40.17418291 38.67320893a13.53085923 13.53085923 0 0 1 3.93815803 10.32868936 13.52395502 13.52395502 0 0 1-3.93539635 10.35354449l-41.56607046 40.06509648c-0.26926396 0.2637406-0.54957465 0.5109111-0.83126617 0.7511774l-260.53980818 250.81592711a13.56676109 13.56676109 0 0 1-19.18678324-1e-8l-41.56607045-41.56607045c-5.2969054-5.2969054-5.2969054-13.88573532-1e-8-19.18678324L842.38549869 427.28797896l-808.39945145 0c-7.49244232 0-13.56538025-6.07293793-13.56538024-13.56399939l0-58.78377468c0-7.48968063 6.07293793-13.56538025 13.56538024-13.56538026l-0.00276168 0.00414253z"  horiz-adv-x="1024" />

    
    <glyph glyph-name="bianjie" unicode="&#59385;" d="M268.1 581.9H98.5c-18.9 0-34.3 15.3-34.3 34.3V785.8c0 18.9 15.3 34.3 34.3 34.3h169.6c18.9 0 34.3-15.3 34.3-34.3v-169.6c0-18.9-15.3-34.3-34.3-34.3z m-135.3 68.6h101.1V751.6H132.8v-101.1z m580.9-282.8H544.1c-18.9 0-34.3 15.3-34.3 34.3V571.6c0 18.9 15.3 34.3 34.3 34.3h169.6c18.9 0 34.3-15.3 34.3-34.3V402c0-18.9-15.4-34.3-34.3-34.3z m-135.4 68.6h101.1V537.4H578.3v-101.1zM925.1-49H755.4c-18.9 0-34.3 15.3-34.3 34.3V154.9c0 18.9 15.3 34.3 34.3 34.3H925c18.9 0 34.3-15.3 34.3-34.3v-169.6c0-19-15.3-34.3-34.2-34.3z m-135.4 68.5h101.1V120.6H789.7v-101.1zM268.1-49H98.5c-18.9 0-34.3 15.3-34.3 34.3V154.9c0 18.9 15.3 34.3 34.3 34.3h169.6c18.9 0 34.3-15.3 34.3-34.3v-169.6c0-19-15.3-34.3-34.3-34.3z m-135.3 68.5h101.1V120.6H132.8v-101.1zM563.4 570.4L252.5 707.9v-75l310.9-137.5z m278.8-426.1L696.3 431.2v-11h-70.7L766 144.3zM149 632.9h68.5v-488.7H149z m103.5-528.6h513.4v-68.5H252.5z"  horiz-adv-x="1024" />

    
    <glyph glyph-name="icon-right-copy-copy" unicode="&#58949;" d="M621.24800001 18.751999999999953l320 320c24.992 24.992 24.992 65.504 0 90.496l-320 320c-24.992 24.992-65.504 24.992-90.496 0s-24.992-65.504 0-90.496l210.75199999-210.75199999-613.504-1e-8c-35.36 0-64-28.64-64-64s28.64-64 64-64l613.504-1e-8-210.75199999-210.75199999c-12.48-12.51200001-18.752-28.864-18.75200001-45.248s6.24-32.768 18.75200001-45.248c24.992-24.992 65.504-24.992 90.496 0z"  horiz-adv-x="1024" />

    
    <glyph glyph-name="bianjiefanghu" unicode="&#59096;" d="M732.51353 221.298l101.831-101.831c16.498 7.964 34.703 10.809 52.907 7.964a418.133 418.133 0 0 1 76.8 241.778c0 90.453-27.875 173.511-76.231 242.347a124.018 124.018 0 0 0-44.942 15.36L733.08253 517.12a242.802 242.802 0 0 0-0.569-295.822zM690.41653 179.2a240.81 240.81 0 0 0-337.92 42.667c-19.912 26.169-34.703 55.75-42.667 87.609H175.57053c-7.395-20.48-22.187-38.116-40.96-48.925 60.302-224.711 291.84-358.969 516.551-298.667 47.787 12.516 92.16 33.565 133.12 62.01-2.844 18.204 0 36.977 7.965 52.906L690.41653 179.2z m250.88-80.782c33.564-37.547 30.15-94.436-7.396-128-34.133-30.72-86.471-30.72-120.604 0-220.16-150.187-519.965-92.16-670.152 128A494.364 494.364 0 0 0 74.87853 250.31c-48.925 8.533-82.49 54.613-73.387 104.676 6.258 33.564 29.582 60.87 62.009 71.11C94.22053 690.632 333.72253 880.072 598.25653 848.214c68.835-7.964 135.964-31.289 195.128-67.697a120.377 120.377 0 0 0 159.29 60.302 120.377 120.377 0 0 0 0-219.591 469.788 469.788 0 0 0 71.68-252.018c0-100.125-30.72-193.422-83.058-270.791z m-250.88 460.8L800.21053 669.013c-7.964 14.223-13.653 29.583-15.36 44.943C593.70453 847.644 330.87853 801.564 197.19053 610.986a415.858 415.858 0 0 1-72.818-188.302c23.893-9.102 42.667-28.444 51.2-53.475h125.725c0 133.12 107.52 240.64 240.64 240.64 54.044 0.569 106.382-17.636 148.48-50.631z"  horiz-adv-x="1024" />

    
    <glyph glyph-name="youjian" unicode="&#58983;" d="M853.333333 641.333333 170.666667 641.333333C123.733333 641.333333 85.76 602.933333 85.76 556L85.333333 44C85.333333-2.933333 123.733333-41.333333 170.666667-41.333333L853.333333-41.333333C900.266667-41.333333 938.666667-2.933333 938.666667 44L938.666667 556C938.666667 602.933333 900.266667 641.333333 853.333333 641.333333ZM853.333333 470.666667 512 257.333333 170.666667 470.666667 170.666667 556 512 342.666667 853.333333 556 853.333333 470.666667Z"  horiz-adv-x="1024" />

    
    <glyph glyph-name="zhen" unicode="&#58948;" d="M1023.4596-108.109405l-17.477398 94.11469c-1.389417 7.385846-6.654574 12.577876-12.870385 12.577876l-61.061201 0.292508-0.073127 6.215811V446.121545h58.940512c5.703921 0 10.822824 4.16825 13.162894 10.530315s1.243162 13.821038-2.705706 18.866815L687.659557 882.47147C681.297492 891.100478 672.22972 896 662.796313 896s-18.574306-4.899522-24.936371-13.52853L328.385687 480.856959a24.42448 24.42448 0 0 1-3.217596-22.376919c2.705706-7.605227 8.84839-12.431622 15.576091-12.358495h64.498178l-1.389416-443.297007-72.103406-5.557667-124.5356 1.170035V278.07527l138.722274-0.585018-47.605799 100.915518h47.605799l-54.040991 119.636078h41.170606L186.518944 833.695637C183.740111 840.130829 178.255572 844.225952 172.186015 844.225952s-11.480968-4.095122-14.332928-10.603443L12.988129 499.138756h40.731843L0.044617 380.23395h47.167036L0.044617 279.318432l151.665786-0.511891v-279.71149l-108.447618-0.51189c-6.142684 0-11.480968-5.19203-12.797258-12.577876l-17.477398-94.11469a19.013069 19.013069 0 0 1 2.559452-13.601657 12.431622 12.431622 0 0 1 10.38406-6.069556h984.657574c4.021995 0 7.824609 2.193816 10.38406 6.069556a18.866814 18.866814 0 0 1 2.486325 13.601657zM694.60664 365.535385c0 3.436978 1.096908 6.727701 3.071341 9.140899a9.652789 9.652789 0 0 0 7.458973 3.729486h93.968436c2.778833 0 5.484539-1.389417 7.458973-3.729486a14.479183 14.479183 0 0 0 3.071342-9.140899v-123.584946a14.186674 14.186674 0 0 0-3.071342-9.067771 9.506534 9.506534 0 0 0-7.458973-3.802614H705.136954a9.725916 9.725916 0 0 0-7.458973 3.802614 13.747911 13.747911 0 0 0-3.071341 9.067771v123.584946z m0-198.759694c0 3.436978 1.096908 6.654574 3.071341 9.067771a9.506534 9.506534 0 0 0 7.458973 3.802614h93.968436c2.778833 0 5.484539-1.389417 7.458973-3.802614a14.332929 14.332929 0 0 0 3.071342-9.067771v-123.658073a14.479183 14.479183 0 0 0-3.071342-9.067772 9.214026 9.214026 0 0 0-7.458973-3.729486H705.136954a9.506534 9.506534 0 0 0-7.458973 3.729486 14.04042 14.04042 0 0 0-3.071341 9.067772V166.775691zM535.262499 365.535385c0 3.436978 1.096908 6.727701 3.071342 9.140899a9.799043 9.799043 0 0 0 7.458973 3.729486h93.968435c2.778833 0 5.484539-1.389417 7.458973-3.729486a14.113547 14.113547 0 0 0 3.071342-9.140899v-123.584946a13.747911 13.747911 0 0 0-3.071342-9.067771 9.506534 9.506534 0 0 0-7.458973-3.802614H545.792814a9.725916 9.725916 0 0 0-7.458973 3.802614 14.186674 14.186674 0 0 0-3.071342 9.067771v123.584946z m-0.146254-197.589659c0 5.923302 3.948868 10.749696 8.775262 10.749696h97.551668c4.826394 0 8.775262-4.826394 8.775262-10.749696v-127.826323c0-5.923302-3.948868-10.749696-8.775262-10.749697H543.964634c-4.826394 0.073127-8.775262 4.826394-8.775262 10.749697V167.945726z"  horiz-adv-x="1024" />

    
    <glyph glyph-name="guanliyuan" unicode="&#59005;" d="M66.56-59.93984c3.64032 18.59072 6.17472 37.46816 11.09504 55.71072 37.96992 140.78976 129.04448 236.06784 263.04 285.24544 182.1952 66.87744 350.17728 36.02432 494.74048-96.54272 69.07904-63.34976 109.04064-143.57504 119.57248-237.53216 0.26624-2.3552 1.60256-4.58752 2.43712-6.88128 0-11.00288 0-22.01088 0-33.1008-175.56992 0-351.13472 0-526.70464 0-12.89216 0.8448-25.76896 2.19648-38.67136 2.46784-108.49792 2.29888-217.00096 4.38784-325.504 6.5536C66.56-75.99104 66.56-67.95776 66.56-59.93984zM542.10048 861.04064c18.45248-4.0448 37.34016-6.70208 55.28064-12.3648 96.4352-30.44352 164.20864-91.28448 190.7456-190.61248 26.69568-99.9168-13.02016-202.31168-99.22048-266.37312-114.55488-85.13536-279.90528-74.66496-382.52544 24.22784-120.1152 115.75808-99.10272 306.62144 43.95008 398.22336 37.65248 24.10496 78.6688 39.14752 123.21792 44.2624 2.84672 0.32256 5.57056 1.73568 8.35584 2.64192C501.96992 861.04064 522.03008 861.04064 542.10048 861.04064zM66.56-84.01408c108.50304-2.16576 217.00608-4.25472 325.504-6.5536 12.9024-0.27648 25.78432-1.62304 38.67136-2.46784-121.39008 0-242.78016 0-364.17536 0.01536C66.56-90.0096 66.56-87.0144 66.56-84.01408z"  horiz-adv-x="1024" />

    
    <glyph glyph-name="tuichu" unicode="&#58947;" d="M1014.619436 410.604395c12.433986-15.579983 12.433986-37.666958 0-53.24594l-170.635809-213.34976a42.639952 42.639952 0 0 0-75.992914 26.62297V298.626521H426.645096a85.354904 85.354904 0 1 0 0 170.709808h341.345617V597.330185a42.639952 42.639952 0 0 0 75.992914 26.622971l170.635809-213.349761zM597.354904 42.708808a85.354904 85.354904 0 1 0 0-170.708808h-426.699521A170.635808 170.635808 0 0 0 0.017575 42.635808V725.326042A170.635808 170.635808 0 0 0 170.654383 895.96185h426.699521a85.354904 85.354904 0 1 0 0-170.635808H256.010287c-47.101947 0-85.354904-37.959957-85.354904-84.695905v-512.639424c0-47.101947 37.959957-85.354904 84.696905-85.354905h342.003616z"  horiz-adv-x="1024" />

    
    <glyph glyph-name="previous-copy" unicode="&#58942;" d="M947.2 819.2l-307.2-220.8v169.6c0 73.6-41.6 70.4-76.8 51.2l-544-390.4c-25.6-25.6-25.6-67.2 0-92.8l544-390.4c32-19.2 76.8-9.6 76.8 54.4v169.6l307.2-220.8c32-22.4 76.8-12.8 76.8 54.4v764.8c0 70.4-41.6 70.4-76.8 51.2v0z"  horiz-adv-x="1024" />

    
    <glyph glyph-name="tingzhi" unicode="&#58944;" d="M992 26.304c0-67.52-54.848-122.304-122.496-122.304H154.496c-67.648 0-122.496 54.784-122.496 122.304V741.696c0 67.52 54.848 122.304 122.496 122.304h715.008c67.648 0 122.496-54.784 122.496-122.304v-715.392z"  horiz-adv-x="1024" />

    
    <glyph glyph-name="xiayiye" unicode="&#59121;" d="M76.8 819.2C41.6 838.4 0 838.4 0 768v-764.8c0-67.2 44.8-76.8 76.8-54.4l307.2 220.8V0c0-64 44.8-73.6 76.8-54.4l544 390.4c25.6 25.6 25.6 67.2 0 92.8L460.8 819.2c-35.2 19.2-76.8 22.4-76.8-51.2v-169.6L76.8 819.2z"  horiz-adv-x="1024" />

    
    <glyph glyph-name="zantingtingzhi" unicode="&#59099;" d="M735.9 831.1c-51.2 0-96-44.7-96-95.8v-702.6c0-51.1 44.8-95.8 96-95.8s96 44.7 96 95.8V735.3c0 51.1-44.8 95.8-96 95.8z m-447.8 0c-51.2 0-96-44.7-96-95.8v-702.6c0-51.1 44.8-95.8 96-95.8s96 44.7 96 95.8V735.3c-0.1 51.1-44.9 95.8-96 95.8z"  horiz-adv-x="1024" />

    
    <glyph glyph-name="bofang" unicode="&#58946;" d="M353-98.4l486 380.8c56 44.4 65.4 125.8 21 181.8-6.2 7.8-13.2 14.8-21 21l-486 381.2C294.8 912.6 210 903 163.8 844.8c-18.4-23.2-28.8-51.8-29.2-81.4v-758.6c1.2-74.4 62.6-133.6 137-132.4 29.6 0.6 58.2 10.8 81.4 29.2z"  horiz-adv-x="1024" />

    
    <glyph glyph-name="tiaocha" unicode="&#58957;" d="M870.4-128H153.6c-56.576 0-102.4 45.824-102.4 102.4V691.2c0 56.576 45.824 102.4 102.4 102.4h51.2v-102.4c-28.262 0-51.2-22.938-51.2-51.2v-614.4c0-28.262 22.938-51.2 51.2-51.2h614.4c28.262 0 51.2 22.938 51.2 51.2V640c0 28.262-22.938 51.2-51.2 51.2V793.6h51.2c56.576 0 102.4-45.824 102.4-102.4v-716.8c0-56.576-45.824-102.4-102.4-102.4zM537.6 193.382c-19.866-19.2-52.07-19.2-71.885 0L321.895 332.39c-19.866 19.2-19.866 50.279 0 69.479 19.814 19.2 52.019 19.2 71.884 0l107.879-104.243L681.42 471.398c19.865 19.15 52.07 19.15 71.885 0 19.865-19.2 19.865-50.33 0-69.53L537.6 193.383z m128 497.818H358.4c-28.262 0-51.2 22.938-51.2 51.2 0 28.262 22.938 51.2 51.2 51.2h51.2C409.6 850.176 455.424 896 512 896c56.576 0 102.4-45.824 102.4-102.4h51.2c28.262 0 51.2-22.938 51.2-51.2 0-28.262-22.938-51.2-51.2-51.2z"  horiz-adv-x="1024" />

    
    <glyph glyph-name="zhiban1" unicode="&#58938;" d="M791.2 689v-102h-160V689H393v-102H233V689H63.9v-696.2h896.3V689h-169zM897 47H125V533h772v-486zM269 775.2h88V607h-88zM667.2 775.2h88V607h-88zM229 487h112v-103.5H229zM229 190.5h112V87H229zM456 190.5h112V87H456zM456 332h112v-103.5H456zM228 334h112v-103.5H228zM684.2 334h112v-103.5h-112zM456 477h112v-103.5H456zM683.2 190.5h112V87h-112zM683.2 487h112v-103.5h-112z"  horiz-adv-x="1024" />

    
    <glyph glyph-name="zhiban2" unicode="&#58939;" d="M921.6 152.380952h-151.161905v151.161905c0 17.066667 14.628571 29.257143 29.257143 29.257143 17.066667 0 29.257143-14.628571 29.257143-29.257143V213.333333h90.209524c17.066667 0 29.257143-14.628571 29.257143-29.257143 2.438095-17.066667-12.190476-31.695238-26.819048-31.695238m-121.904762 273.066667c-151.161905 0-273.066667-121.904762-273.066667-273.066667s121.904762-273.066667 273.066667-273.066666c151.161905 0 273.066667 121.904762 273.066667 273.066666s-121.904762 273.066667-273.066667 273.066667M394.971429 340.114286h-243.809524c-17.066667 0-29.257143 14.628571-29.257143 29.257143 0 17.066667 14.628571 29.257143 29.257143 29.257142h243.809524c17.066667 0 29.257143-14.628571 29.257142-29.257142 0-17.066667-12.190476-29.257143-29.257142-29.257143m-31.695239-182.857143H151.161905c-17.066667 0-29.257143 14.628571-29.257143 29.257143 0 17.066667 14.628571 29.257143 29.257143 29.257143h212.114285c17.066667 0 29.257143-14.628571 29.257143-29.257143 2.438095-17.066667-12.190476-29.257143-29.257143-29.257143m114.590477-2.438095c0 170.666667 138.971429 312.07619 312.07619 312.07619 19.504762 0 41.447619-2.438095 60.952381-4.87619V579.047619H0v-575.390476c0-51.2 41.447619-92.647619 92.647619-92.647619h504.685714c-73.142857 56.07619-119.466667 143.847619-119.466666 243.809524M636.342857 774.095238c0-12.190476-9.752381-24.380952-24.380952-24.380952-12.190476 0-24.380952 9.752381-24.380953 24.380952V847.238095c0 12.190476 9.752381 24.380952 24.380953 24.380953 12.190476 0 24.380952-9.752381 24.380952-24.380953v-73.142857zM273.066667 774.095238c0-12.190476-9.752381-24.380952-24.380953-24.380952-12.190476 0-24.380952 9.752381-24.380952 24.380952V847.238095c0 12.190476 9.752381 24.380952 24.380952 24.380953 12.190476 0 24.380952-9.752381 24.380953-24.380953v-73.142857z m485.180952 53.638095H658.285714V847.238095C658.285714 874.057143 636.342857 893.561905 611.961905 893.561905 585.142857 893.561905 565.638095 871.619048 565.638095 847.238095v-19.504762H295.009524V847.238095c0 26.819048-21.942857 46.32381-46.32381 46.32381C221.866667 893.561905 202.361905 874.057143 202.361905 847.238095v-19.504762H92.647619C41.447619 827.733333 0 786.285714 0 735.085714v-92.647619h848.457143V735.085714c0 51.2-41.447619 92.647619-90.209524 92.647619z"  horiz-adv-x="1072" />

    
    <glyph glyph-name="ditu3" unicode="&#59050;" d="M1010.688 747.985455a38.539636 38.539636 0 0 1-30.626909 7.819636l-271.592727-46.312727-69.352728 22.109091a37.748364 37.748364 0 0 1-47.383272-22.760728c-6.516364-18.804364 4.096-39.098182 23.738181-45.381818l78.382546-24.994909c1.815273-0.558545 3.677091-0.977455 5.585454-1.303273v-291.467636l-154.996363 45.707636a25.227636 25.227636 0 0 1-31.232-15.825454 23.738182 23.738182 0 0 1 16.523636-29.882182l169.658182-50.082909v-300.497455L374.784 82.525091v135.261091a24.482909 24.482909 0 0 1-24.994909 23.924363 24.482909 24.482909 0 0 1-24.948364-23.924363v-135.912727l-249.762909-37.515637V720.477091c0 19.828364-16.756364 35.84-37.469091 35.84C16.849455 756.363636 0.093091 740.352 0.093091 720.523636V2.327273c0-10.519273 4.794182-20.48 13.125818-27.322182a38.446545 38.446545 0 0 1 30.161455-8.145455l310.365091 46.638546 348.066909-93.649455a38.912 38.912 0 0 1 16.802909-0.744727l274.711272 47.895273A36.352 36.352 0 0 1 1024.093091 2.327273V720.477091a35.281455 35.281455 0 0 1-13.405091 27.461818z m-61.533091-372.922182l-199.773091-33.326546V643.537455l199.773091 34.071272v-302.545454z m-199.773091-377.576728v295.656728l199.773091 33.326545v-294.167273l-199.773091-34.816zM162.629818 539.601455c12.101818-24.436364 123.159273-184.413091 156.904727-232.820364 6.935273-9.960727 18.152727-15.872 30.11491-15.872h0.09309a36.770909 36.770909 0 0 1 30.11491 16.011636c33.652364 48.872727 144.290909 209.92 155.648 232.308364 14.894545 29.323636 23.133091 63.488 23.13309 96.209454C558.638545 753.431273 464.663273 849.454545 349.184 849.454545S139.729455 753.431273 139.729455 635.438545c0-32.674909 7.68-64.884364 22.900363-95.790545zM349.184 773.911273c74.705455 0 135.540364-62.138182 135.540364-138.472728 0-20.48-5.399273-42.868364-14.754909-61.300363-6.469818-12.194909-62.370909-95.138909-120.506182-179.944727C296.122182 471.319273 235.659636 559.941818 228.631273 573.672727a139.450182 139.450182 0 0 0-14.987637 61.765818c0 76.334545 60.834909 138.472727 135.540364 138.472728zM279.365818 640a69.818182 69.818182 0 1 1 139.636364 0 69.818182 69.818182 0 0 1-139.636364 0z"  horiz-adv-x="1024" />

    
    <glyph glyph-name="zhiban3" unicode="&#58940;" d="M305.783333 420.886213a23.655484 23.655484 0 0 0-23.739072-23.488307 23.237542 23.237542 0 0 0-23.237543 23.488307 135.036869 135.036869 0 0 0 9.403682 50.152969l0.543324 1.922531a125.674981 125.674981 0 0 0 25.995955 40.874669A131.066426 131.066426 0 0 0 334.495907 543.301252a129.102101 129.102101 0 0 0 48.355821 9.654446 118.110242 118.110242 0 0 0 95.875759-45.973555 116.731035 116.731035 0 0 0 23.237543-53.078559 114.850299 114.850299 0 0 0-5.266062-58.511797c-11.91133-31.805341-38.408815-60.810475-84.298782-76.023542-25.076485-8.818564-52.493441-19.058128-73.515894-33.435313v-0.167176a93.535287 93.535287 0 0 1-25.076484-24.616749h169.433447a23.195748 23.195748 0 0 0 23.488307-22.944984 23.906249 23.906249 0 0 0-23.488307-24.03163H282.044261a23.864454 23.864454 0 0 0-23.237543 24.03163v3.594297c4.179414 37.029609 25.661602 63.276329 53.621883 82.627016 25.954161 17.971481 56.631061 29.005134 85.134665 39.244698 30.38434 10.239565 48.063262 28.211045 55.251854 48.105056a67.413949 67.413949 0 0 1 3.009178 34.521961 69.629039 69.629039 0 0 1-14.377184 32.348665 71.593363 71.593363 0 0 1-58.511797 27.918486 64.1958 64.1958 0 0 1-29.005134-6.645269 66.201919 66.201919 0 0 1-25.076485-17.678921 90.024579 90.024579 0 0 1-16.717656-26.288515v-1.92253a92.490434 92.490434 0 0 1-6.06015-33.142754z m639.450354-60.267151h-67.915478a23.530101 23.530101 0 0 0-23.780867 23.488307 23.237542 23.237542 0 0 0 23.780867 22.944983H969.766848c39.286492 0 55.335442-7.188592 54.332383-43.925642a516.951728 516.951728 0 0 0-38.65958-174.908479l-1.086648-1.964325a515.739698 515.739698 0 0 0-110.002178-164.41815A508.969047 508.969047 0 0 0 511.953829-127.996239a499.523571 499.523571 0 0 0-195.930932 39.202905l-1.964324 0.585118A512.354373 512.354373 0 0 0 38.844155 579.536772l1.086648 2.465854a507.548046 507.548046 0 0 0 110.002178 163.874826A501.52969 501.52969 0 0 0 316.022897 856.966279a511.602078 511.602078 0 0 0 391.6111 0l2.173295-0.835883a495.135186 495.135186 0 0 0 92.281463-50.570911l-2.465854 49.484263A38.701374 38.701374 0 0 0 836.359951 895.960212a39.286492 39.286492 0 0 0 40.958258-36.73705l7.690121-135.663781a38.617786 38.617786 0 0 0-11.033653-32.641224 37.614727 37.614727 0 0 0-28.211045-11.326212l-135.95634-8.358828a39.704434 39.704434 0 0 0-40.958258 37.029608 39.16111 39.16111 0 0 0 37.071403 40.916464l37.614727 2.21509a451.376721 451.376721 0 0 1-63.568888 33.184548l-2.21509 0.543323A423.082088 423.082088 0 0 1 535.107783 817.178257v-68.249832a23.237542 23.237542 0 0 0-23.195748-23.488308 23.864454 23.864454 0 0 0-23.530101 23.488308V817.178257a421.870058 421.870058 0 0 1-142.100079-32.056107A242.155252 242.155252 0 0 1 315.187014 770.577789l12.162095-20.437334a23.153954 23.153954 0 1 0-40.37314-22.652425l-12.120301 20.144776A463.622404 463.622404 0 0 1 204.934071 690.876363a430.479651 430.479651 0 0 1-56.672855-69.879804l20.479129-11.91133a23.488307 23.488307 0 0 0 8.358828-31.763547 22.903189 22.903189 0 0 0-31.763547-8.567799l-20.89707 12.538243c-4.346591-9.821623-8.77677-19.68504-13.206949-29.715635l-0.835883-1.629971A452.672339 452.672339 0 0 1 78.339618 406.968764h68.83495a22.861395 22.861395 0 0 0 22.903189-22.944983 23.153954 23.153954 0 0 0-22.903189-23.488307H78.339618a437.626449 437.626449 0 0 1 46.433291-173.529273l20.437335 12.538242a23.655484 23.655484 0 0 0 32.056106-8.567799 23.279336 23.279336 0 0 0-8.358829-31.763547l-20.479129-12.162095A428.807885 428.807885 0 0 1 204.934071 77.087611a413.344053 413.344053 0 0 1 69.963392-56.92362l12.1203 20.89707a23.321131 23.321131 0 0 0 32.056106 8.024475 22.694218 22.694218 0 0 0 8.358829-30.969458l-12.162095-21.565777c9.361888-4.179414 19.350687-8.818564 29.005133-13.248742l1.922531-0.543324a440.677421 440.677421 0 0 1 142.309049-32.056106v68.082655a23.488307 23.488307 0 0 0 23.530102 23.488307 22.903189 22.903189 0 0 0 23.195748-23.488307v-68.249832a420.574439 420.574439 0 0 1 173.278508 46.433291l-11.869536 20.89707a23.195748 23.195748 0 0 0 40.331346 22.944983l11.91133-20.89707a419.780351 419.780351 0 0 1 69.879803 56.92362 464.918023 464.918023 0 0 1 57.508738 69.921597l-20.89707 12.162095a22.777807 22.777807 0 0 0-8.567799 31.512783 24.031631 24.031631 0 0 0 31.805341 8.818563l20.437335-12.538242c4.973503 9.947006 9.403682 19.350687 13.541301 29.255899l0.835883 1.629971a431.98424 431.98424 0 0 1 32.056106 142.601609z m-282.946333 180.759659a22.777807 22.777807 0 0 0 20.437335 11.576977 23.404719 23.404719 0 0 0 23.739072-22.903189v-197.059374h35.399637a22.986777 22.986777 0 0 0 23.195748-23.237542 23.404719 23.404719 0 0 0-23.195748-23.488308H706.463761v-48.063262a24.157013 24.157013 0 0 0-23.780866-24.03163 23.864454 23.864454 0 0 0-23.195748 24.03163v48.063262H540.12308a23.404719 23.404719 0 0 0-23.195748 23.488308 24.157013 24.157013 0 0 0 4.680944 14.126419l140.679078 217.329533z m-2.758413-208.385586v118.026654l-76.566866-118.026654z"  horiz-adv-x="1024" />

    
    <glyph glyph-name="zhiban4" unicode="&#58941;" d="M787.444802 344.664084A236.328605 236.328605 0 1 1 1023.773407 108.92045 236.328605 236.328605 0 0 1 787.444802 344.664084z m146.242949-264.114766a39.19311 39.19311 0 0 0-27.78616-11.553193h-118.456789a39.485596 39.485596 0 0 0-39.778082 39.924325V265.839134a39.485596 39.485596 0 0 0 78.82495 0v-118.164302h79.117435a39.339353 39.339353 0 0 0 27.78616-67.125514z m0 0M230.697897 631.15402A264.84598 264.84598 0 1 1 495.397634 896a264.84598 264.84598 0 0 1-264.699737-264.84598z m0 0M497.298792-14.362355a309.450079 309.450079 0 0 1 43.872885-74.145175H37.803448A37.730681 37.730681 0 0 0 0.072767-51.946793v4.533531A491.961279 491.961279 0 0 0 217.682274 350.513801a76.338819 76.338819 0 0 0 85.552125 0 327.730448 327.730448 0 0 1 59.667123-32.612177 337.382483 337.382483 0 0 1 132.496112-26.908703 303.01539 303.01539 0 0 1 36.560737 2.047402 316.177255 316.177255 0 0 1-34.659579-307.110193z m0 0"  horiz-adv-x="1024" />

    
    <glyph glyph-name="duanmian" unicode="&#58979;" d="M826.6 63.8H197.4c-13.1 0-24.4 9-27.4 21.8L35.2 669.8c-3.5 15.1 5.9 30.2 21 33.7 15.2 3.5 30.2-5.9 33.7-21L219.7 120h584.5L934 682.5c3.5 15.1 18.5 24.5 33.7 21 15.1-3.5 24.5-18.6 21-33.7L854 85.5c-3-12.7-14.3-21.7-27.4-21.7zM107.8 451.9c-7.4 0-14.8 2.9-20.3 8.7-10.7 11.2-10.3 29 0.9 39.7l64 61.3c11.2 10.7 29 10.3 39.7-0.9 10.7-11.2 10.3-29-0.9-39.7l-64-61.3c-5.4-5.2-12.4-7.8-19.4-7.8zM146.5 302.3c-7.4 0-14.8 2.9-20.3 8.7-10.7 11.2-10.3 29 0.9 39.7l220.3 210.9c11.2 10.7 29 10.3 39.7-0.9 10.7-11.2 10.3-29-0.9-39.7L165.9 310.1c-5.5-5.2-12.4-7.8-19.4-7.8zM178.4 146.2c-7.4 0-14.8 2.9-20.3 8.7-10.7 11.2-10.3 29 0.9 39.7l383.4 367c11.2 10.7 29 10.3 39.7-0.9 10.7-11.2 10.3-29-0.9-39.7L197.8 154c-5.4-5.2-12.4-7.8-19.4-7.8zM677.2 63.8c-7.4 0-14.8 2.9-20.3 8.7-10.7 11.2-10.3 29 0.9 39.7l191.7 183.6c11.2 10.7 29 10.3 39.7-0.9 10.7-11.2 10.3-29-0.9-39.7L696.6 71.6c-5.4-5.2-12.4-7.8-19.4-7.8zM287.3 63.8c-7.4 0-14.8 2.9-20.3 8.7-10.7 11.2-10.3 29 0.9 39.7l469.4 449.4c11.2 10.7 29 10.3 39.7-0.9 10.7-11.2 10.3-29-0.9-39.7L306.7 71.6c-5.4-5.2-12.4-7.8-19.4-7.8zM482.3 63.8c-7.4 0-14.8 2.9-20.3 8.7-10.7 11.2-10.3 29 0.9 39.7l434 415.5c11.2 10.7 29 10.4 39.7-0.9 10.7-11.2 10.3-29-0.9-39.7l-434-415.5c-5.5-5.2-12.4-7.8-19.4-7.8z"  horiz-adv-x="1024" />

    
    <glyph glyph-name="shanhongyujing" unicode="&#59182;" d="M126.254421 151.005867c93.5936 7.850667 179.4048 31.266133 280.849067 39.048533 249.6512 15.5648 296.482133-109.226667 538.350933-78.0288 62.395733 7.7824 202.820267 31.197867 195.037867 117.009067-46.830933 140.424533-54.613333 171.690667-132.642133 312.1152-23.415467 38.980267-70.178133 109.226667-93.5936 124.791466-39.048533 23.415467-93.661867-38.980267-117.077334-70.178133-7.7824-7.850667-7.7824-15.633067 0-23.415467 31.266133-46.830933 101.444267-171.6224 39.048534-163.84-23.415467 0-23.415467 23.415467-39.048534 62.395734l-46.762666 93.661866C711.368021 642.525867 617.774421 821.998933 524.112555 876.612267 454.002688 923.4432 391.538688 876.612267 344.776021 829.781333 219.848021 681.642667 118.472021 470.903467 40.443221 299.349333 1.394688 229.034667 24.810155 151.005867 126.254421 151.005867z m-109.226666-218.453334c85.8112-23.3472 140.424533 39.048533 296.482133 62.464 288.631467 31.197867 413.4912-117.077333 616.311467-109.226666 54.613333 0 101.444267 15.5648 148.2752 38.980266 31.197867 15.633067 78.0288 54.613333 85.8112 93.661867 7.7824 31.197867-7.7824 54.613333-39.048534 54.613333-23.3472 0-38.980267-15.633067-46.762666-23.415466-140.424533-140.424533-319.8976-23.415467-475.9552 15.5648-163.84 46.830933-366.660267 39.048533-530.500267-23.415467-23.415467-7.7824-54.613333-15.5648-62.395733-31.197867-15.633067-31.197867-7.850667-62.395733 7.7824-78.0288z"  horiz-adv-x="1229" />

    
    <glyph glyph-name="shuiwei1" unicode="&#59063;" d="M436.421159 173.178171a231.905337 231.905337 0 0 1 223.472416 240.94061c0 120.470305-162.634911 301.175762-180.705457 320.451011a60.235152 60.235152 0 0 1-41.562256 18.070545 60.235152 60.235152 0 0 1-41.562255-18.672897C366.548383 702.645161 212.948744 534.589086 212.948744 414.118781a231.905337 231.905337 0 0 1 223.472415-240.94061z m0 474.653001C496.656312 580.367801 571.950252 474.353933 571.950252 414.118781a144.564366 144.564366 0 0 0-135.529093-151.190233A144.564366 144.564366 0 0 0 300.892066 414.118781c0 60.235152 74.691589 165.044318 135.529093 236.724149zM1089.370211 852.028339a43.971661 43.971661 0 1 1-87.943322 0v-51.19988h-97.580947a43.971661 43.971661 0 0 1 0-87.943322h97.580947v-91.557432h-97.580947a43.971661 43.971661 0 0 1 0-87.943322h97.580947v-91.557432h-97.580947a43.971661 43.971661 0 1 1 0-87.340971h97.580947v-91.557432h-97.580947a43.971661 43.971661 0 0 1 0-87.943322h97.580947v-143.962014a180.705457 180.705457 0 0 1-51.802231-49.392825c-15.058788-19.8776-22.889358-21.684655-34.936389-21.684655s-12.04703 0-28.310521 16.865843l-10.239976 8.432921-5.421164 7.228218a170.465481 170.465481 0 0 1-129.505578 66.861019 171.670184 171.670184 0 0 1-137.938499-75.896292c-15.058788-19.8776-22.287006-21.684655-34.936388-21.684655s-12.04703 0-28.310522 16.865843l-10.239975 8.432921-4.818813 5.421164a172.874887 172.874887 0 0 1-129.505577 66.861019 169.86313 169.86313 0 0 1-137.938499-75.896292c-15.058788-19.8776-22.889358-21.684655-35.53874-21.684655s-11.444679 0-28.310522 16.865843L185.842925-14.755504 178.614707-7.527286a172.874887 172.874887 0 0 1-129.505578 65.053965 43.971661 43.971661 0 1 1 0-87.340971c26.503467 0 42.766958-15.058788 65.656317-39.755201l19.8776-18.672897A120.470305 120.470305 0 0 1 221.984017-127.997591a124.686765 124.686765 0 0 1 104.809165 56.018692c22.287006 27.70817 39.152849 42.164607 68.668074 42.164607s42.164607-15.058788 65.053964-39.755201l20.479952-18.672897a120.470305 120.470305 0 0 1 87.340971-39.755201 125.891468 125.891468 0 0 1 104.809165 56.018692c21.684655 27.70817 38.550498 42.164607 68.065722 42.164607s42.766958-15.058788 65.656317-39.755201l20.479951-18.672897a120.470305 120.470305 0 0 1 87.340971-39.755201 124.686765 124.686765 0 0 1 105.411517 60.235153 84.329213 84.329213 0 0 0 39.755201 32.526982 45.778716 45.778716 0 0 1 25.901115 24.696413A7.83057 7.83057 0 0 1 1089.370211-7.527286a42.766958 42.766958 0 0 1 0 12.649382z"  horiz-adv-x="1089" />

    
    <glyph glyph-name="dangan2" unicode="&#58929;" d="M675.521 589.36V751.066c0 1.067-0.23 2.079-0.289 3.15v7.312h-0.578c-4.104 35.692-28.498 63.236-58.266 63.236H408.183c-29.769 0-54.162-27.544-58.266-63.236h-0.867v-240.027h0.29v-65.898c-0.059-1.211-0.29-2.309-0.29-3.466V-3.1200000000000045h0.867c4.104-35.724 28.497-63.237 58.266-63.237h208.206c29.768 0 54.162 27.514 58.266 63.237h0.578v5.432h0.289V525.893h-0.289v60.29c0.058 1.098 0.288 2.079 0.288 3.177zM431.42 716.645h161.732v-411.096H431.42V716.645z m125.028-676.413c-27.282-15.723-60.981-15.723-88.324 0-27.397 15.837-44.22 44.97-44.22 76.586 0 31.563 16.823 60.753 44.22 76.534 27.343 15.778 61.042 15.778 88.324 0 27.399-15.781 44.22-44.972 44.22-76.534 0-31.616-16.82-60.749-44.22-76.586zM532.862 152.48400000000004c-12.717 7.399-28.438 7.399-41.212 0a41.17 41.17 0 0 1-20.578-35.666c0-22.773 18.438-41.211 41.214-41.211 22.771 0 41.215 18.438 41.215 41.211a41.096 41.096 0 0 1-20.639 35.666zM863.15 152.48400000000004a41.038 41.038 0 0 1-41.215 0c-12.772-7.34-20.577-20.924-20.577-35.666 0-14.737 7.805-28.322 20.577-35.662a41.038 41.038 0 0 1 41.215 0 41.102 41.102 0 0 1 20.637 35.662 41.098 41.098 0 0 1-20.637 35.666zM1005.751 589.36V751.066c0 1.067-0.231 2.079-0.231 3.15v7.312h-0.577c-4.163 35.692-28.499 63.236-58.266 63.236H738.411c-29.769 0-54.102-27.544-58.208-63.236h-0.865v-240.027h0.287v-65.898c-0.057-1.211-0.287-2.309-0.287-3.466V-3.1200000000000045h0.865c4.106-35.724 28.439-63.237 58.208-63.237h208.266c29.767 0 54.103 27.514 58.266 63.237h0.577v5.432h0.231V525.893h-0.231v60.29c0 1.098 0.231 2.079 0.231 3.177zM761.705 716.645h161.734v-411.096H761.705V716.645z m125.03-676.413c-27.343-15.723-61.041-15.723-88.382 0a88.447 88.447 0 0 0-44.161 76.586c0 31.563 16.82 60.753 44.161 76.534 27.341 15.778 61.039 15.778 88.382 0 27.341-15.781 44.22-44.972 44.22-76.534 0-31.616-16.879-60.749-44.22-76.586zM182.75 157.803c-22.659 0-40.982-18.382-40.982-40.984 0-22.599 18.324-40.98 40.982-40.98 22.602 0 40.925 18.382 40.925 40.98 0 22.602-18.323 40.984-40.925 40.984zM345.929 589.36V751.066c0 1.067-0.232 2.079-0.289 3.15v7.312h-0.578c-4.104 35.692-28.439 63.236-58.208 63.236H78.59c-29.769 0-54.104-27.544-58.266-63.236h-0.809v-240.027h0.23v-65.898c0-1.211-0.23-2.309-0.23-3.466V-3.1200000000000045h0.809c4.163-35.724 28.498-63.237 58.266-63.237h208.264c29.769 0 54.104 27.514 58.208 63.237h0.578v5.432h0.289V525.893h-0.289v60.29c0.057 1.098 0.289 2.079 0.289 3.177zM101.826 716.645h161.733v-411.096H101.826V716.645z m80.924-688.206c-48.843 0-88.381 39.537-88.381 88.379 0 48.787 39.538 88.383 88.381 88.383 48.786 0 88.323-39.596 88.323-88.383 0-48.841-39.536-88.379-88.323-88.379z"  horiz-adv-x="1024" />

    
    <glyph glyph-name="jianceyichang" unicode="&#58962;" d="M852.622814 384.426311H341.049126M682.098251 829.49542C655.666944 867.010824 641.172356 896 596.83597 896s-67.357202-37.515404-89.525395-67.357202l-477.468776-806.581183a106.577852 106.577852 0 0 1-22.168194-104.872606c6.820983-29.841799 37.515404-45.189009 85.262282-45.189009H1108.409659c59.683597 0 85.262281 29.841799 85.262281 45.189009a108.283097 108.283097 0 0 1-22.168193 104.872606zM550.794338 560.066611a63.946711 63.946711 0 0 0 59.683597 59.683597 58.830974 58.830974 0 0 0 59.683597-59.683597v-276.249792a63.946711 63.946711 0 0 0-59.683597-59.683597 63.946711 63.946711 0 0 0-59.683597 59.683597V560.066611m58.830974-529.478768a59.683597 59.683597 0 0 0 0 119.367194 63.946711 63.946711 0 0 0 59.683597-59.683597 58.830974 58.830974 0 0 0-59.683597-59.683597z m0 0"  horiz-adv-x="1199" />

    
    <glyph glyph-name="guangbo" unicode="&#58931;" d="M572.6 13.7c0-91.8-70.5-44.8-70.5-44.8L197.4 225.1h-47c-29.2 0-52.7 24.2-52.7 54.1v215c0 29.9 23.5 53.4 52.7 53.4h56.2L502.1 798.8s70.5 47.7 70.5-44.8v-740.3z m0 0M689.3 230.1c-9.9 0-19.8 4.1-26.9 12.1-13.1 14.8-11.6 37.5 3.2 50.5 26.5 23.3 41.7 56.7 41.7 91.5 0 34.5-15 67.7-41.2 91-14.8 13.2-16.1 35.8-2.9 50.5 13.2 14.8 35.8 16.1 50.5 2.9 41.4-36.9 65.1-89.5 65.1-144.4 0-55.3-24.1-108.3-66-145.2-6.7-5.9-15.1-8.9-23.5-8.9z m0 0M715.9 91.1c-14.1 0-27.5 8.4-33.2 22.3-7.5 18.3 1.3 39.2 19.7 46.6C795.1 197.7 855 285.5 855 383.6c0 98.6-60.3 186.5-153.6 224.1-18.3 7.4-27.2 28.2-19.9 46.6 7.4 18.3 28.2 27.2 46.6 19.9 57.9-23.3 107.3-62.5 142.8-113.4 36.5-52.3 55.7-113.5 55.7-177.1 0-63.3-19.1-124.4-55.3-176.5-35.2-50.7-84.3-90-141.8-113.4-4.5-1.8-9.1-2.7-13.6-2.7z m0 0"  horiz-adv-x="1024" />

    
    <glyph glyph-name="xunjian" unicode="&#59060;" d="M128.7168 878.08C233.6768 914.944 354.304 810.8032 329.4208 701.44c-20.1728-71.0656-65.536-131.2768-109.2608-189.44-12.5952-14.1312-24.2688-35.328-45.8752-34.9184-21.9136-1.024-34.2016 19.968-46.8992 34.2016C83.6608 569.344 38.8096 629.76 18.6368 700.6208 0.7168 777.216 55.1936 856.6784 128.7168 878.08M70.7584 702.464C92.16 639.3856 135.5776 587.1616 173.8752 533.7088c38.5024 53.248 80.9984 105.6768 103.424 168.3456 21.2992 63.7952-37.6832 134.9632-103.424 131.1744-65.4336 3.7888-125.0304-67.1744-103.1168-130.7648zM147.968 796.8768c55.296 24.4736 121.1392-37.376 97.6896-94.1056-16.5888-56.32-99.1232-68.9152-132.096-20.8896-32.0512 37.5808-11.5712 100.352 34.4064 114.9952m11.3664-50.5856c-28.2624-17.408 6.3488-60.2112 29.696-38.7072 27.4432 16.896-5.8368 58.5728-29.696 38.7072zM391.2704 789.1968c42.5984 1.6384 85.504 2.048 128.2048-0.1024 28.9792-4.3008 29.5936-50.2784 1.3312-56.9344-43.4176-2.2528-87.2448-2.3552-130.6624 0.1024-32.3584 3.584-30.4128 54.6816 1.1264 56.9344zM618.1888 788.6848c43.6224 2.3552 87.9616 3.4816 131.4816-1.4336 21.9136-2.4576 34.7136-29.2864 21.2992-47.3088-16.5888-17.92-42.1888-8.3968-63.2832-9.5232-30.72 2.2528-62.464-3.1744-92.672 4.1984-25.1904 8.4992-22.6304 48.128 3.1744 54.0672zM833.8432 727.9616c11.1616 7.4752 26.0096 1.8432 34.4064-7.0656 32.8704-32.1536 53.9648-76.1856 58.6752-121.856-0.4096-28.9792-48.2304-38.5024-56.5248-8.704-8.6016 32.3584-21.2992 63.5904-43.008 89.4976-15.7696 14.336-12.9024 38.6048 6.4512 48.128zM864.6656 512.512c19.0464 8.9088 44.7488-3.072 44.1344-26.0096-14.2336-47.104-52.4288-84.3776-93.9008-108.9536-26.0096-13.6192-60.3136 21.0944-34.2016 43.1104 33.792 25.1904 58.9824 58.4704 83.968 91.8528zM322.56 399.36l5.632 5.7344c47.2064 4.4032 95.0272 3.584 142.336 0.6144 23.4496-10.9568 24.3712-45.7728-0.6144-55.6032-43.8272-2.7648-87.9616-2.1504-131.7888-0.512-23.1424 0.7168-34.9184 35.4304-15.5648 49.7664zM557.2608 399.872l6.4512 5.9392c47.2064 2.8672 95.0272 3.4816 142.2336-0.4096 21.504-12.3904 22.7328-44.3392-1.1264-55.0912-43.8272-3.2768-87.9616-2.048-131.7888-0.9216-23.9616 0.2048-36.6592 36.2496-15.7696 50.4832zM119.808 280.6784c22.2208 47.0016 62.3616 82.2272 106.1888 108.6464 14.0288-9.0112 35.1232-16.6912 34.304-36.9664-6.2464-17.8176-25.7024-25.088-38.912-36.864-24.9856-16.384-37.4784-44.4416-56.9344-66.048-19.0464-19.7632-54.4768 6.8608-44.6464 31.232zM779.776 220.672c72.192 34.6112 166.5024-2.9696 196.4032-76.9024 23.9616-49.4592 12.3904-108.3392-18.3296-152.064 16.2816-23.1424 35.5328-44.3392 49.2544-69.2224 13.824-27.0336-26.7264-53.248-47.616-32.9728-18.6368 18.6368-33.0752 41.0624-48.7424 62.0544-71.168-37.888-168.8576-9.216-203.776 64.512-40.1408 72.8064-4.096 173.3632 72.8064 204.5952m21.6064-44.544c-67.3792-26.112-82.0224-127.2832-23.1424-169.984 57.1392-49.152 159.1296-6.4512 159.744 70.144 9.728 70.4512-72.3968 130.6624-136.6016 99.84zM126.7712 186.0608c33.3824 8.2944 36.6592-31.8464 43.4176-53.9648 6.4512-30.72 37.376-47.3088 47.2064-75.776-2.9696-23.1424-34.0992-38.8096-51.3024-19.5584-32.5632 31.6416-54.6816 74.8544-59.904 120.1152-2.3552 13.1072 8.704 25.4976 20.5824 29.184zM271.1552-28.3648c-25.7024 10.1376-21.4016 49.664 4.9152 55.9104 34.2016-0.8192 68.4032-3.8912 102.7072-2.8672 15.9744-0.2048 36.4544 2.56 45.6704-14.1312 13.0048-17.3056-1.024-35.9424-13.4144-48.5376-46.592 2.1504-94.72-4.608-139.8784 9.6256zM504.9344 22.3232c46.1824 4.4032 93.0816 3.3792 139.3664 0.512 25.2928-9.0112 25.1904-46.7968-0.4096-55.296-43.4176-2.6624-87.2448-2.048-130.7648-0.4096-28.2624 1.024-35.5328 45.6704-8.192 55.1936z"  horiz-adv-x="1024" />

    
    <glyph glyph-name="rizhi" unicode="&#58964;" d="M855.923458 808.836688h-136.488288v-59.122402c0-28.716595-10.810953-52.027714-39.865391-52.027714H340.376113c-28.716595 0-39.865391 23.311118-39.86539 52.027714V808.836688H164.022435c-43.243814 0-78.04157-35.135599-78.379413-78.379413v-780.077862c0-43.243814 35.135599-78.04157 78.379413-78.379413h691.901023c43.243814 0 78.04157 35.135599 78.379412 78.379413v780.415704c-0.337842 43.243814-35.473441 78.04157-78.379412 78.041571z m-46.284395-678.725174c0-14.865061-16.21643-27.027384-36.149126-27.027383h-527.033982c-19.932695 0-36.149126 12.162323-36.149126 27.027383v4.39195c0 14.865061 16.21643 27.027384 36.149126 27.027384h527.033982c19.932695 0 36.149126-12.162323 36.149126-27.027384v-4.39195z m0 197.299901c0-14.865061-16.21643-27.027384-36.149126-27.027383h-527.033982c-19.932695 0-36.149126 12.162323-36.149126 27.027383v4.39195c0 14.865061 16.21643 27.027384 36.149126 27.027384h527.033982c19.932695 0 36.149126-12.162323 36.149126-27.027384v-4.39195z m0 197.299901c0-14.865061-16.21643-27.027384-36.149126-27.027383h-527.033982c-19.932695 0-36.149126 12.162323-36.149126 27.027383v4.39195c0 14.865061 16.21643 27.027384 36.149126 27.027384h527.033982c19.932695 0 36.149126-12.162323 36.149126-27.027384v-4.39195z m0 0M351.524909 896h316.896074c5.743319 0 8.7839-2.702738 8.7839-8.7839v-136.150445c0-5.743319-2.702738-8.7839-8.7839-8.7839h-316.896074c-5.743319 0-8.7839 2.702738-8.783899 8.7839V887.553943c0.337842 5.743319 3.040581 8.446057 8.783899 8.446057z m0 0"  horiz-adv-x="1024" />

    
    <glyph glyph-name="rengongbaoxun" unicode="&#58932;" d="M353.657399 440.817804a180.222669 180.222669 0 1 0 180.926414 180.222669 180.542553 180.542553 0 0 0-180.926414-180.222669z m0-360.445339c-159.942021 0-289.431081 39.793575-289.431081 140.748978s129.617014 183.357533 289.431081 183.357533S643.152457 322.396731 643.152457 221.121443s-129.680991-140.748978-289.495058-140.748978z m-79.459196-116.05393a35.827013 35.827013 0 1 0 33.907709 63.145109A394.161117 394.161117 0 1 1 574.569319 760.701846a35.954966 35.954966 0 1 0 14.586712 70.374489 465.815142 465.815142 0 1 0-314.957828-866.7578z m493.133239 323.72265a35.827013 35.827013 0 0 0-68.327231 21.752115A215.345937 215.345937 0 0 1 599.776181 562.309763a35.827013 35.827013 0 1 0 35.251222 62.377388 286.999963 286.999963 0 0 0 132.240063-336.581989z"  horiz-adv-x="1024" />

    
    <glyph glyph-name="xuncha" unicode="&#59037;" d="M512 551.203125c41.599623 0 74.399326 33.599696 74.399326 75.199318 0 30.399725-18.399833 58.399471-46.39958 69.599369-27.999746 11.999891-60.799449 4.799957-81.59926-16.799847-21.599804-21.599804-27.999746-54.399507-15.999855-82.399254 11.199899-27.999746 39.199645-46.39958 69.599369-45.599586zM914.396353 111.207112c-3.999964 1.599986-8.79992 2.399978-12.799884 2.399978H131.203451c-19.199826 0-36.799667 12.799884-40.79963 31.99971-2.399978 11.999891 0.799993 23.999783 7.999927 33.599696 7.999928 9.599913 19.199826 15.199862 31.199717 15.199862h175.998405c22.399797 0 39.999638 18.399833 39.999638 39.999638 0 22.399797-17.599841 39.999638-39.999638 39.999637H131.203451C69.604009 275.205626 16.804488 229.606039 8.80456 168.006597c-3.999964-34.399688 7.199935-68.799377 29.599732-94.399144 23.19979-25.599768 55.1995-39.999638 89.599188-39.999638h763.193084c19.199826 0 36.799667-12.799884 40.79963-31.99971 2.399978-11.999891-0.799993-23.999783-7.999928-33.599695-7.999928-9.599913-19.199826-15.199862-31.199717-15.199862H223.202617c-19.199826 0-36.799667-12.799884-40.79963-31.99971-2.399978-11.999891 0.799993-23.999783 7.999927-33.599696 7.999928-9.599913 19.199826-15.199862 31.199718-15.199862h670.393924c65.599406-0.799993 119.998913 50.399543 123.998877 115.998949 1.599986 60.799449-41.599623 113.598971-101.59908 123.198883zM482.400268 220.006126c7.199935-7.999928 18.399833-13.599877 29.599732-13.599877 11.999891 0 22.399797 4.799957 29.599732 13.599877l171.998441 176.798398c111.198992 115.198956 111.198992 298.397296 0 413.596252C660.798652 864.800283 587.999311 896 512 896S363.201348 864.800283 310.401827 810.400776c-111.198992-115.198956-111.198992-298.397296 0-413.596252l171.998441-176.798398z m28.799739 556.794954h1.599986c73.599333 0 135.998768-52.799522 147.998659-125.598862s-29.599732-143.198702-99.199101-167.198484c-15.999855-5.599949-31.99971-7.999928-48.799558-7.999928h-1.599986c-83.199246 0-150.398637 67.199391-150.398637 150.398637s67.199391 150.398637 150.398637 150.398637z"  horiz-adv-x="1024" />

    
    <glyph glyph-name="zhiban" unicode="&#58934;" d="M787.444802 344.664084A236.328605 236.328605 0 1 1 1023.773407 108.92045 236.328605 236.328605 0 0 1 787.444802 344.664084z m146.242949-264.114766a39.19311 39.19311 0 0 0-27.78616-11.553193h-118.456789a39.485596 39.485596 0 0 0-39.778082 39.924325V265.839134a39.485596 39.485596 0 0 0 78.82495 0v-118.164302h79.117435a39.339353 39.339353 0 0 0 27.78616-67.125514z m0 0M230.697897 631.15402A264.84598 264.84598 0 1 1 495.397634 896a264.84598 264.84598 0 0 1-264.699737-264.84598z m0 0M497.298792-14.362355a309.450079 309.450079 0 0 1 43.872885-74.145175H37.803448A37.730681 37.730681 0 0 0 0.072767-51.946793v4.533531A491.961279 491.961279 0 0 0 217.682274 350.513801a76.338819 76.338819 0 0 0 85.552125 0 327.730448 327.730448 0 0 1 59.667123-32.612177 337.382483 337.382483 0 0 1 132.496112-26.908703 303.01539 303.01539 0 0 1 36.560737 2.047402 316.177255 316.177255 0 0 1-34.659579-307.110193z m0 0"  horiz-adv-x="1024" />

    
    <glyph glyph-name="hongshui" unicode="&#58935;" d="M693.922034 508.834428l109.167529-40.204555 28.329188 76.832192-109.167528 40.204555-28.329189-76.832192z m-272.274975-52.795305l109.167528-40.204555 28.329188 76.832192-109.167528 40.204555-28.329188-76.832192zM376.864049 896L171.548973 338.57314499999995c30.904569 24.752271 66.673746 43.781473 108.022915 44.78301L427.799357 785.830935l530.528434-195.442784-76.402962-207.604303c29.330725-0.715384 57.230683-11.446137 80.266033-30.332262l106.449071 288.871874L376.864049 896z m268.554981-522.373061l109.167529-40.204555 28.329188 76.832192-109.167528 40.204555-28.329189-76.832192zM470.150063 591.246612l109.167528-40.204555 28.329188 76.832192-109.167528 40.204555-28.329188-76.832192zM83.556798 113.94271300000003c39.918402-3.576918 81.410647 14.450748 114.604443 49.361465 3.719994 4.006148 7.726142 8.441526 12.018443 13.01998 10.158446 11.159983 31.476876 34.481487 49.504541 49.647618 1.859997-31.476876 14.021517-59.09068 23.607657-73.541428 19.029202-28.758418 47.930697-46.0707 80.981417-48.932234 41.778399-3.719994 88.993712 16.739975 123.618276 53.224535 3.576918 3.863071 7.583066 8.155372 11.73229 12.733827 11.589213 12.59075 36.05533 39.346095 56.372223 56.08607 2.003074-31.333799 14.021517-58.66145 23.607657-72.969121 19.029202-28.758418 47.930697-46.0707 81.124493-48.932235 41.921475-3.576918 89.279866 16.739975 123.904429 53.224536 3.576918 3.719994 7.296912 7.869219 11.30306 12.16152 10.587676 11.589213 36.05533 39.346095 57.087607 56.5153 2.003074-31.333799 14.021517-58.66145 23.607657-72.969121 20.316893-30.618416 50.219925-49.075311 84.129104-51.936845 3.290764-0.286153 6.581529-0.42923 9.729216-0.429231 36.627637 0 74.113735 17.598435 104.159844 49.218388l-62.238368 59.09068c-13.878441-14.736901-31.047646-23.46458-44.210703-22.319966-4.864608 0.42923-12.16152 2.289227-19.887663 14.021517-5.293838 7.869219-14.450748 33.766103-5.866145 50.792232l13.019981 25.610731-18.743049 21.747659c-15.309208 17.741512-35.19687 27.184575-57.659913 27.470728h-1.287691c-50.219925 0-95.432164-44.78301-144.793628-98.866005-3.719994-4.149225-7.296912-8.012296-10.4446-11.30306-16.167668-17.026128-38.058404-27.756881-54.082996-26.469191-5.150761 0.42923-11.159983 2.146151-17.026128 11.016906-5.293838 8.012296-14.450748 33.766103-5.866145 50.792232l12.59075 25.324577-18.886125 21.74766c-15.309208 17.741512-35.19687 27.184575-57.659914 27.470728h-1.144613c-54.226072 0-104.016767-54.512226-144.221322-98.436775-3.863071-4.292301-7.583066-8.298449-10.87383-11.732291-16.024591-17.026128-38.058404-27.613805-53.796842-26.469191-5.007685 0.42923-11.016907 2.146151-16.883052 11.016907-5.293838 7.869219-14.450748 33.766103-5.866145 50.792231l13.019981 25.610731-18.743049 21.74766c-15.738438 18.170742-35.912254 27.899958-58.66145 28.186111h-1.144614c-52.366075 0-99.009082-51.078385-136.495179-92.284476-4.006148-4.292301-7.726142-8.441526-11.016907-12.018444-14.164594-14.879978-31.763029-23.89381-44.639933-22.60612-4.864608 0.42923-12.018443 2.289227-19.601509 13.735364l-71.538354-47.501467c20.173816-30.475339 49.933771-48.789157 83.556798-51.650692z m884.357132-155.953611c-4.864608 0.42923-12.16152 2.289227-19.887662 14.021517-5.293838 7.869219-14.450748 33.766103-5.866145 50.792231l13.01998 25.610731-18.743048 21.74766c-15.309208 17.741512-35.19687 27.184575-57.659914 27.470728h-1.28769c-50.219925 0-95.432164-44.78301-144.936705-98.866006-3.719994-4.149225-7.296912-8.012296-10.4446-11.30306-16.167668-17.026128-38.344558-27.756881-54.082996-26.469191-5.150761 0.42923-11.159983 2.146151-17.026128 11.016907-5.293838 8.012296-14.450748 33.766103-5.866145 50.792231l13.01998 25.610731-18.886125 21.74766c-15.309208 17.741512-35.19687 27.184575-57.659914 27.470728h-1.144613c-50.076848 0-95.002934-44.639933-144.221322-98.436775-3.863071-4.292301-7.583066-8.298449-10.730753-11.732291-16.024591-16.883052-38.058404-27.756881-53.796842-26.469191-5.007685 0.42923-11.016907 2.146151-16.883052 11.016907-5.293838 7.869219-14.450748 33.766103-5.866145 50.792231l13.019981 25.610731-18.743049 21.74766c-15.738438 18.170742-35.912254 27.899958-58.661451 28.186111h-1.144613c-52.366075 0-99.009082-51.078385-136.49518-92.284476-4.006148-4.292301-7.726142-8.441526-11.016906-12.018444-14.164594-14.879978-31.763029-23.607657-44.639933-22.60612-5.007685 0.42923-12.16152 2.289227-19.744586 13.735364l-71.538354-47.501467c20.173816-30.475339 49.933771-48.789157 83.556798-51.650692 39.632248-3.290764 81.410647 14.450748 114.604443 49.361465 3.719994 4.006148 7.726142 8.441526 12.018443 13.01998 10.158446 11.159983 31.476876 34.481487 49.504541 49.647618 1.859997-31.476876 14.021517-59.09068 23.607657-73.541428 19.029202-28.758418 47.930697-46.0707 80.981417-48.932234 41.635322-3.576918 88.993712 16.739975 123.618276 53.224535 3.576918 3.863071 7.583066 8.155372 11.589213 12.59075 11.589213 12.59075 36.05533 39.346095 56.372223 56.08607 2.003074-31.333799 14.021517-58.66145 23.607657-72.969121 19.029202-28.758418 47.930697-46.0707 81.124493-48.932234 41.635322-3.576918 89.279866 16.739975 123.90443 53.224535 3.433841 3.719994 7.296912 7.869219 11.30306 12.16152 10.587676 11.589213 36.05533 39.489171 57.087606 56.658377 2.003074-31.333799 14.021517-58.66145 23.607657-72.969121 20.316893-30.618416 50.219925-49.075311 84.129104-51.936845 3.290764-0.286153 6.581529-0.42923 9.729216-0.429231 36.627637 0 74.113735 17.598435 104.159844 49.218388L1012.124633-19.690931999999975c-13.878441-14.736901-30.904569-23.321503-44.210703-22.319966z"  horiz-adv-x="1074" />

    
    <glyph glyph-name="SAASfuben-" unicode="&#59070;" d="M932.693333 880.355556H91.306667A61.44 61.44 0 0 1 30.151111 819.2v-630.897778A61.44 61.44 0 0 1 91.306667 128h369.777777v-239.217778h96.142223V128h375.466666a61.44 61.44 0 0 1 61.44 61.44V818.915556A61.44 61.44 0 0 1 932.693333 880.355556zM100.124444 810.666667a10.24 10.24 0 0 0 10.24 9.955555h803.555556a9.955556 9.955556 0 0 0 10.24-9.955555v-199.111111h-824.888889z m824.888889-614.684445a10.524444 10.524444 0 0 0-10.24-10.24H110.08a10.24 10.24 0 0 0-10.24 10.24V502.044444h824.888889zM170.951111 759.182222h207.928889v-89.031111H170.951111zM769.137778 438.044444h69.12v-201.386666h-69.12zM170.951111 438.044444h69.12v-201.386666H170.951111zM370.346667 438.044444h69.12v-201.386666h-69.12zM569.742222 438.044444h69.12v-201.386666h-69.12z"  horiz-adv-x="1024" />

    
    <glyph glyph-name="hedao" unicode="&#58937;" d="M808.789333 536.704C373.504 330.496 18.389333 631.978667 18.389333 631.978667l-18.346666-552.448c96.512-88.277333 480.384-226.986667 845.568-76.245334 707.84 274.688 937.472-38.101333 937.472-38.101333V498.730667c-129.792 226.730667-640.426667 196.224-974.293334 38.058666v-0.085333zM808.789333 760.874667C373.504 554.624 18.389333 856.064 18.389333 856.064l-18.346666-141.568C96.512 626.304 480.426667 487.594667 845.568 638.250667c707.84 274.773333 937.472-38.016 937.472-38.016V722.730667c-129.792 226.730667-640.426667 196.224-974.293333 38.144"  horiz-adv-x="1792" />

    
    <glyph glyph-name="jiangyufenxi" unicode="&#58968;" d="M875.872 187.072a312.192 312.192 0 1 0-624.384 0C251.488 361.088 442.272 685.888 563.68 896c112.832-210.048 312.192-534.912 312.192-708.928zM272.224 516.928a136.128 136.128 0 1 0-272.192 0c0 75.84 83.2 217.6 136.128 309.056 49.152-91.584 136.064-233.216 136.064-309.056zM1024.032 604.48a66.752 66.752 0 1 0-133.504 0 443.136 443.136 0 0 0 66.752 151.488A481.728 481.728 0 0 0 1024.032 604.544zM206.496-24.704a41.728 41.728 0 1 0-83.2 0 277.952 277.952 0 0 0 41.728 94.72 301.888 301.888 0 0 0 41.472-94.72z"  horiz-adv-x="1024" />

    
    <glyph glyph-name="shuiku1" unicode="&#59159;" d="M512 831.97952c247.48032 0 448.02048-200.4992 448.02048-447.97952S759.43936-64.02048 512-64.02048c-247.48032 0-448.02048 200.54016-448.02048 448.02048 0 247.48032 200.54016 448.02048 448.02048 448.02048M512 896C230.4 896 0 665.6 0 384S230.4-128 512-128 1024 102.4 1024 384 793.6 896 512 896M529.408 472.30976v29.85984h124.7232V572.12928h-124.7232V642.048h124.7232V712.00768h-124.7232V732.16H404.6848v-259.85024H130.74432c-54.6816-284.30336 186.28608-477.26592 389.61152-477.26592 3.03104 0 6.06208-0.28672 9.05216-0.12288 207.79008 10.11712 425.94304 220.9792 359.6288 477.3888h-359.6288z"  horiz-adv-x="1024" />

    
    <glyph glyph-name="heliumian" unicode="&#58930;" d="M808.728649 48.941684a128.534411 128.534411 0 0 0 6.619798 188.526329 211.143973 211.143973 0 0 1 10.205522 310.716768l-16.411583 16.135758a128.534411 128.534411 0 0 0 5.654411 188.52633L979.188447 895.862088h-126.051987l-92.677172-80.678788a211.281886 211.281886 0 0 1-9.240134-310.027206l16.411582-16.135757a128.396498 128.396498 0 0 0-6.20606-188.940068 211.143973 211.143973 0 0 1-10.895084-310.027205l119.018451-118.053064h117.087676z m-688.183165 95.711245a127.155286 127.155286 0 0 0 44.545724 92.815084 211.143973 211.143973 0 0 1 10.205522 310.716768l-16.411583 16.135758a128.534411 128.534411 0 0 0 5.654411 188.52633L328.931208 895.862088h-126.051987L110.202049 815.1833a211.281886 211.281886 0 0 1-9.240134-310.027206l16.411582-16.135757a128.396498 128.396498 0 0 0-6.20606-188.940068 211.143973 211.143973 0 0 1-10.895085-310.027205l119.018452-118.053064h117.087676L158.333497 48.527946a127.155286 127.155286 0 0 0-37.788013 96.124983zM292.660231 390.688754a209.213199 209.213199 0 0 0-3.585724-31.168215L639.785888 710.231919a211.695623 211.695623 0 0 0 65.232592 104.951381L797.695652 895.862088h-70.335353L285.212959 453.163098a210.592323 210.592323 0 0 0 7.447272-62.474344zM475.394238 896h-92.815084l-41.373738-35.443502-159.564713-159.564713a128.672323 128.672323 0 0 1 2.206599-95.297509zM229.496326 548.184781a210.178586 210.178586 0 0 0 32.133602-41.373737L650.405147 895.44835H552.901039L217.084204 560.734815z m405.048888 79.437576L178.468716 171.545859a130.603098 130.603098 0 0 1-3.723636-26.89293 127.431111 127.431111 0 0 1 13.791246-61.233131l469.867744 470.833131a211.971448 211.971448 0 0 0-23.720943 73.369428z m1.1033-524.06734L404.23141-127.862088h97.504107l160.530101 160.530101a212.10936 212.10936 0 0 0-26.479191 70.887004z m148.393805-201.765926l-29.099529-29.651179h59.578182z m-71.990303 587.369158l-16.411583 16.411583c-1.379125 1.379125-2.620337 2.896162-3.999461 4.275286L221.91114 40.115286l48.958923-48.545185 465.316633 465.316633a129.086061 129.086061 0 0 1-24.13468 32.271515z m-132.671785-617.020337h97.504108l68.956229 68.956229-48.958923 48.545186z m-220.659932 31.995691L637.027639 182.440943a211.695623 211.695623 0 0 0 68.956229 117.777239 127.017374 127.017374 0 0 1 44.545724 93.090909L309.899288-47.321212z"  horiz-adv-x="1024" />

    
    <glyph glyph-name="cezhanguanli" unicode="&#58927;" d="M335.62112 532.53632c98.42176 96.18432 256.21504 95.51872 353.792-2.048 0.80896-0.80896 1.58208-1.62816 2.3808-2.43712l-48.78336-48.78848-2.3808 2.43712c-70.61504 70.61504-184.74496 71.28064-256.21504 2.048l-48.7936 48.78848zM480.256 459.2896c19.69664 19.69664 51.69664 19.69664 71.38304 0 19.70176-19.70176 19.70176-51.6864 0-71.39328-19.70176-19.69664-51.6864-19.69664-71.38304 0.01024-19.69664 19.69664-19.69664 51.68128 0 71.38304zM238.04928 630.11328l48.79872-48.78848c125.35296 123.12576 326.85056 122.45504 451.3536-2.05824 0.79872-0.79872 1.58208-1.61792 2.3808-2.43712l48.78336 48.79872c-0.7936 0.80896-1.57184 1.62816-2.37568 2.43712-151.43936 151.44448-396.63616 152.1152-548.9408 2.048zM496 384h35.40992v-99.84h-35.40992zM906.17856 22.016c0-39.49056-29.23008-71.51104-65.28-71.51104H188.1088c-36.05504 0-65.28 32.02048-65.28 71.51104v220.49792c0 39.49056 29.22496 71.51104 65.28 71.51104h652.8c36.04992 0 65.28-32.02048 65.28-71.51104V22.016h-0.01024zM290.18624 190.29504c-32.04608 0-58.02496-25.97888-58.02496-58.03008 0-32.04608 25.97888-58.02496 58.02496-58.02496s58.02496 25.97888 58.02496 58.02496c0.00512 32.0512-25.97376 58.03008-58.02496 58.03008z m224.32256 0c-32.0512 0-58.03008-25.97888-58.03008-58.03008 0-32.04608 25.97888-58.02496 58.03008-58.02496 32.04096 0 58.01984 25.97888 58.01984 58.02496 0 32.0512-25.97888 58.03008-58.01984 58.03008z m224.31744 0c-32.0512 0-58.03008-25.97888-58.03008-58.03008 0-32.04608 25.97888-58.02496 58.03008-58.02496 32.04608 0 58.02496 25.97888 58.02496 58.02496 0 32.0512-25.97888 58.03008-58.02496 58.03008z"  horiz-adv-x="1024" />

    
    <glyph glyph-name="tzdheliu" unicode="&#58928;" d="M543.976272 332.83776c0 0-130.918725 49.118698-237.007949 77.556377-19.088754 5.119601-262.551718 82.551134-89.237417 129.46256 33.878598 9.169847 110.829178 25.862018 252.884544 40.298821 44.709271 4.54348 132.047432 52.567239 39.501666 88.759533-18.34788 7.1744-47.40159 41.364083 73.358775 51.704592 29.344329 2.51324 80.131015 59.459207-16.929578 38.778188-97.05957-20.683065-42.887786-20.683065-95.931886-25.852808s-181.704388-36.193317-124.145461-51.703569c57.557904-15.513322 162.517397-28.438703 79.002308-51.703569-20.167319-5.619998-166.444846-16.720823-265.157056-40.502459C84.178191 571.2926640000001-56.440453 486.226243 24.818245 345.76416400000005c35.156708-60.772109 186.640818-154.355507 215.127615-177.191608C374.442064 60.760085000000004 415.44492-20.325675000000047 414.768515-20.47098500000004l608.863095 0C1023.63161-20.47098500000004 896.100028 208.74755700000003 543.976272 332.83776z"  horiz-adv-x="1040" />

    
    <glyph glyph-name="chaxun" unicode="&#58921;" d="M460.358584-24.717167C206.522809-24.717167 0 181.762786 0 435.684272 0 689.520047 206.522809 896 460.358584 896s460.358584-206.479953 460.358584-460.315728C920.717167 181.762786 714.194358-24.717167 460.358584-24.717167zM460.358584 821.730644c-212.865489 0-386.046371-173.180882-386.046371-386.046371 0-212.951201 173.180882-386.132083 386.046371-386.132083s386.046371 173.180882 386.046371 386.132083C846.404955 648.549761 673.224073 821.730644 460.358584 821.730644zM1009.343266-128c-12.428225 0-24.856449 4.714154-34.37047 14.228174l-222.893781 222.850925c-18.985185 18.942329-18.985185 49.712899 0 68.740939 18.942329 18.985185 49.712899 18.985185 68.740939 0l222.893781-222.850925c18.985185-18.942329 18.985185-49.712899 0-68.740939C1034.199715-123.24299 1021.771491-128 1009.343266-128z"  horiz-adv-x="1058" />

    
    <glyph glyph-name="zhuce" unicode="&#58922;" d="M832 800v-832l32 32H160l32-32V800l-32-32h704l-32 32z m64 0c0 17.673-14.327 32-32 32H160c-17.673 0-32-14.327-32-32v-832c0-17.673 14.327-32 32-32h704c17.673 0 32 14.327 32 32V800zM512 640c35.493 0 64-28.43 64-64 0-35.493-28.43-64-64-64-35.493 0-64 28.43-64 64 0 35.493 28.43 64 64 64z m0 64c-70.954 0-128-57.199-128-128 0-70.954 57.199-128 128-128 70.954 0 128 57.199 128 128 0 70.954-57.199 128-128 128zM480 320h288v64H448v-64h32z m0-128h288v64H448v-64h32z m0-128h288v64H448v-64h32zM256 384h128v-64H256v64z m0-128h128v-64H256v64z m0-128h128v-64H256v64z"  horiz-adv-x="1024" />

    
    <glyph glyph-name="list" unicode="&#58923;" d="M168.96 451.38h616.243l0.615-31.54c4.3 0.205 8.192 1.434 12.697 1.434 27.648 0 53.658-5.735 78.848-14.336v261.734h-181.862v137.42h-647.783v-831.897h562.79c-43.007 48.333-69.836 106.087-69.836 177.357 0 19.66 2.253 38.707 6.144 57.344h-377.446v93.184h415.13c17.202 26.829 39.32 49.766 64.511 68.608h-479.641l-0.41 80.691zM170.189 516.096v77.21h434.79v-77.21M719.258 805.888v-106.906h157.696l-157.696 106.906zM1003.52-10.854l-79.667 81.305c18.227 28.467 29.081 62.464 29.081 99.123 0 99.533-78.848 180.43-175.923 180.43s-175.923-80.692-175.923-180.43 78.848-180.428 175.923-180.428c29.901 0 57.344 8.396 82.125 21.708l80.691-82.944 63.693 61.236zM671.949 169.574c0 59.392 47.104 107.725 105.062 107.725s104.859-48.333 104.859-107.725-46.901-107.724-104.86-107.724c-57.958 0-105.062 48.332-105.062 107.724z"  horiz-adv-x="1024" />

    
    <glyph glyph-name="zhuce1" unicode="&#58925;" d="M212.107947 366.021973h368.319146c15.428267 0 28.371627 12.939947 28.371627 28.371627 0 15.428267-12.939947 28.371627-28.371627 28.371627H212.107947c-15.428267 0-28.371627-12.939947-28.371627-28.371627 0-15.43168 13.438293-28.371627 28.371627-28.371627m0-222.48448h147.326293c15.428267 0 28.371627 12.939947 28.371627 28.371627s-12.939947 28.371627-28.371627 28.371627H212.107947c-15.428267 0-28.371627-12.939947-28.371627-28.371627s13.438293-28.371627 28.371627-28.371627m144.339626 444.96896h224.474454c15.428267 0 28.371627 12.939947 28.371626 28.371627s-12.939947 28.371627-28.371626 28.371627H212.107947c-15.428267 0-28.371627-12.939947-28.371627-28.371627s12.939947-28.371627 28.371627-28.371627h144.339626zM871.099733 795.562667c-16.42496 27.87328-41.80992 47.284907-71.673173 58.733226-19.909973 7.46496-40.813227 7.963307-61.719893 7.963307H179.756373c-18.414933 0-35.836587 0-54.25152-4.478293C66.27328 842.84416 23.965013 786.10432 23.965013 724.882773v-662.975146c0-39.816533 14.933333-78.639787 44.29824-105.519787 23.88992-21.899947 54.749867-34.341547 87.10144-35.836587 6.47168-0.498347 12.939947 0 18.91328 0h245.876054c15.428267 0 28.371627 12.939947 28.371626 28.371627s-12.939947 28.371627-28.371626 28.371627H160.344747c-2.986667 0-5.973333 0-8.461654 0.498346h-1.989973c1.989973-0.498347 3.98336-0.498347-2.986667 0.498347 0.996693 0 1.989973 0 2.986667-0.498347h-1.491627c-3.485013 0.498347-7.46496 1.491627-10.949973 2.48832-2.986667 0.996693-5.474987 1.989973-8.461653 2.986667h0.498346c5.474987-2.48832-6.47168 2.48832-0.996693 0.498347h0.498347c-0.996693 0.498347-2.48832 0.996693-3.485014 1.989973-2.986667 1.491627-5.474987 2.986667-7.963306 4.478293-1.491627 0.996693-5.973333 4.478293-6.966614 4.97664 0.996693-0.498347 1.989973-1.491627 2.48832-1.989973-2.48832 1.989973-2.986667 2.48832-2.48832 1.989973-3.98336 3.485013-7.46496 6.966613-10.949973 10.451627-0.996693 0.996693-1.989973 1.989973-2.48832 2.986667 0 0 0-0.498347 0.498347-0.498347 3.485013-4.478293-4.478293 5.474987-0.498347 0.996693 0 0 0-0.498347 0.498347-0.498346-1.989973 2.986667-3.98336 5.474987-5.474987 8.461653-1.491627 2.48832-2.986667 5.474987-4.478293 8.461653 0 0.498347-0.498347 0.498347-0.498347 0.996694 0.498347-0.498347 0.498347-1.491627 0.996693-1.989974-2.986667 6.966613-1.989973 4.478293-0.996693 1.989974-0.498347 0.498347-0.498347 1.491627-0.996693 1.989973-1.989973 5.474987-3.485013 10.451627-4.478294 15.926613 0-0.498347 0 0.498347-0.498346 3.98336 0-1.491627 0.498347-2.48832 0.498346-3.98336 0 0.498347-0.498347 5.973333-0.996693 7.963307V731.354453c0 1.491627 0 2.986667 0.498347 3.98336v-0.498346c-0.996693-5.973333 0.498347 7.46496 0 0.996693v-0.498347c0.996693 6.47168 2.986667 13.438293 4.97664 19.411627 0 0.498347 0 0.498347 0.498346 0.996693-0.498347-0.498347-0.498347-1.491627-0.996693-1.989973 2.986667 6.966613 1.491627 3.98336 0.996693 1.989973 0.498347 0.996693 0.498347 1.491627 0.996694 2.48832 1.491627 2.986667 2.986667 5.474987 4.478293 7.963307 1.491627 2.48832 2.986667 4.97664 4.97664 7.46496 0 0 0-0.498347-0.498347-0.498347-3.485013-4.478293 3.98336 5.474987 0.498347 0.996694 0 0 0-0.498347-0.498347-0.498347 0.996693 1.491627 2.48832 2.986667 3.485014 3.98336 1.989973 2.48832 4.478293 4.478293 6.47168 6.47168 0.996693 0.996693 3.98336 3.485013 4.97664 4.478293-0.996693-0.498347-1.989973-1.491627-2.48832-1.989973 3.485013 2.48832 3.485013 2.48832 2.48832 1.989973 4.478293 3.485013 9.458347 5.973333 14.434986 8.461654 0.498347 0.498347 1.491627 0.498347 1.989974 0.996693-0.498347 0-0.498347-0.498347-0.996694-0.498347-1.491627-0.498347-0.996693-0.498347 0 0 0.498347 0.498347 1.491627 0.996693 3.485014 1.491627-0.996693-0.498347-1.491627-0.498347-2.48832-0.996693 0.498347 0 0.996693 0.498347 1.491626 0.498346l8.96 2.986667c2.986667 0.996693 5.973333 1.491627 9.458347 1.989973h0.996693c-0.498347 0-1.491627 0-2.48832-0.498346 7.46496 0.996693 4.478293 0.498347 2.48832 0.498346 1.491627 0 2.986667 0 3.98336 0.498347h602.251947c2.986667 0 5.973333-0.498347 8.96-0.498347h-0.498347c-5.973333 0.996693 6.966613-0.498347 0.996694 0h-0.498347c1.989973-0.498347 3.98336-0.498347 5.973333-0.996693 2.986667-0.498347 5.973333-1.491627 8.96-2.48832 1.491627-0.498347 4.97664-1.989973 6.47168-2.48832l-2.986666 1.491627c3.98336-1.491627 3.98336-1.989973 2.986666-1.491627a137.314987 137.314987 0 0 0 14.434987-8.461653c0.498347-0.498347 0.996693-0.996693 1.491627-0.996694-0.498347 0.498347-0.996693 0.498347-0.996694 0.996694-0.498347 0.498347-0.498347 0.498347 0 0s1.491627-0.996693 3.485014-2.48832c-0.498347 0.498347-1.491627 0.996693-1.989974 1.491626 0.498347-0.498347 0.996693-0.498347 0.996694-0.996693 2.48832-1.989973 4.478293-3.98336 6.966613-6.47168 2.48832-2.48832 4.478293-4.478293 6.47168-6.966613 0 0 0.498347-0.498347 0.498347-0.996694-0.498347 0.498347-0.996693 0.996693-0.996694 1.491627 4.478293-5.973333 2.48832-3.485013 0.996694-1.491627 0.996693-0.996693 1.491627-2.48832 2.48832-3.485013 2.986667-3.98336 4.97664-8.461653 7.46496-12.939947 0 0 0.498347-0.498347 1.491626-3.485013-0.498347 0.996693-0.996693 2.48832-1.491626 3.485013 0-0.498347 1.989973-5.474987 2.48832-6.966613 0.996693-3.485013 1.989973-6.966613 2.986666-10.949973 0.498347-1.491627 0.498347-2.986667 0.996694-4.478294v0.498347c-0.498347 5.973333 0.996693-6.966613 0-0.996693v0.498346c0.498347-2.986667 0.498347-5.973333 0.498346-8.96v-192.621226c0-15.428267 12.939947-28.371627 28.371627-28.371627 15.428267 0 28.371627 12.939947 28.371627 28.371627V721.896107c-0.017067 27.374933-6.488747 52.261547-19.428694 73.66656M541.30688 95.716693l162.474667-147.268266 254.01344 280.96512-162.474667 147.268266-254.01344-280.96512z m363.33568 134.393174l-206.830933-228.775254-103.355734 93.682347 206.830934 228.775253 103.355733-93.682346zM567.012693-34.658987l9.639254 98.34496-35.33824 32.037547-11.08992-171.113813 174.045866 23.394986-35.826346 32.477867-101.430614-15.141547zM834.583893 419.969707l-55.985493-61.917867 29.34784-26.60352 38.741333 42.847573a24.55552 24.55552 0 0 0 34.7136 1.73056l67.334827-61.04064a24.630613 24.630613 0 0 0 1.723733-34.757973l-38.741333-42.847573 29.34784-26.60352 55.985493 61.917866c14.26432 15.773013 13.056 40.137387-2.696533 54.418774l-105.4208 95.563093c-15.755947 14.281387-40.086187 13.069653-54.350507-2.706773z"  horiz-adv-x="1024" />

    
    <glyph glyph-name="chaxuncopy" unicode="&#58926;" d="M386.168243 569.826074c46.260679 221.18387 265.035138 363.33908 488.809125 317.620519 223.773986-45.778797 367.314607-262.204081 321.053928-483.568656-46.200443-221.18387-265.035138-363.33908-488.809124-317.62052-223.773986 45.778797-367.435078 262.384787-321.053929 483.568657z m464.775256 216.063873C685.055597 819.742163 522.842045 714.33046 488.628418 550.249615c-34.213627-164.14108 72.28231-324.607809 238.230449-358.399789 165.887902-33.852215 328.101454 71.499252 362.495786 235.640332 34.213627 163.900139-72.28231 324.366868-238.411154 358.399789zM56.621143-15.961816h778.058837c31.262099 0 56.621143-25.057868 56.621143-56.018791 0-30.900688-25.359044-55.958555-56.621143-55.958555H56.621143a56.319967 56.319967 0 0 0-56.621143 56.01879c0 30.900688 25.298809 55.958555 56.621143 55.958556z m0 362.074139h226.364102c31.262099 0 56.621143-25.057868 56.621143-56.01879 0-30.900688-25.359044-55.958555-56.621143-55.958555H56.621143a56.319967 56.319967 0 0 0-56.621143 56.01879c0 30.900688 25.298809 56.018791 56.621143 56.018791z m0 373.820016h226.364102c31.262099 0 56.621143-25.118103 56.621143-56.018791 0-30.900688-25.359044-56.018791-56.621143-56.01879H56.621143a56.319967 56.319967 0 0 0-56.621143 56.01879c0 30.900688 25.298809 56.018791 56.621143 56.018791zM1028.396572 206.125582l167.875665-249.13303c17.347755-25.901161 7.047525-59.211259-23.070104-74.089368l-7.228231-3.614115c-30.117629-14.998579-68.788665-6.083761-86.13642 19.877635l-167.875666 249.2535c-17.347755 25.901161-7.047525 59.211259 23.070105 74.149604l7.228231 3.614115c30.117629 14.938344 68.788665 6.023526 86.13642-20.058341z"  horiz-adv-x="1204" />

    
    <glyph glyph-name="zhuce2" unicode="&#59082;" d="M940.8 812.8H83.2C32 812.8 0 780.8 0 723.2v-556.8c0-51.2 32-83.2 83.2-83.2h851.2c57.6 0 83.2 32 83.2 83.2V723.2c6.4 57.6-25.6 89.6-76.8 89.6z m0-640H83.2V723.2h851.2v-550.4zM748.8 19.2h-96l-12.8 25.6H384l-12.8-19.2H275.2c-19.2 0-32-12.8-32-32s12.8-32 32-32h467.2c19.2 0 32 12.8 32 32s-12.8 25.6-25.6 25.6zM531.2 582.4h-64v-102.4H364.8v-70.4h102.4v-102.4h64V409.6H640V480H531.2z"  horiz-adv-x="1024" />

    
    <glyph glyph-name="listpress" unicode="&#58885;" d="M848.404 884l-670.252 0c-56.464 0-102.399-45.947-102.399-102.4l0-893.671c0-15.42 12.501-27.927 27.926-27.927 1.565 0 3.09 0.161 4.58 0.407 1.569-0.267 3.155-0.407 4.748-0.407 6.045 0 12.137 1.964 17.264 5.982l114.982 90.562 114.98-90.562c10.135-7.961 24.41-7.961 34.565 0l119.307 93.963 115.637-91.073c10.145-7.963 24.417-7.963 34.565 0l114.89 90.491 117.089-92.217c5.483-4.318 12.058-6.234 18.506-5.948 2.561-0.773 5.271-1.2 8.084-1.2 15.43 0 27.927 12.508 27.927 27.927l0 893.674c0.003 56.456-45.933 102.399-102.398 102.399zM245.892 713.238c0 9.382 7.605 16.985 16.985 16.985l351.472 0c9.38 0 16.985-7.605 16.985-16.985l0-27.439c0-9.382-7.605-16.985-16.985-16.985l-351.472 0c-9.382 0-16.985 7.605-16.985 16.985l0 27.439zM767.873 194.522c0-9.382-7.605-16.985-16.985-16.985l-488.011 0c-9.382 0-16.985 7.603-16.985 16.985l0 27.439c0 9.382 7.605 16.985 16.985 16.985l488.01 0c9.38 0 16.985-7.603 16.985-16.985l0-27.439zM767.873 358.281c0-9.382-7.605-16.985-16.985-16.985l-488.011 0c-9.382 0-16.985 7.603-16.985 16.985l0 27.439c0 9.382 7.605 16.985 16.985 16.985l488.01 0c9.38 0 16.985-7.605 16.985-16.985l0-27.439zM767.873 522.039c0-9.382-7.605-16.985-16.985-16.985l-488.011 0c-9.382 0-16.985 7.605-16.985 16.985l0 27.439c0 9.382 7.605 16.985 16.985 16.985l488.01 0c9.38 0 16.985-7.605 16.985-16.985l0-27.439z"  horiz-adv-x="1024" />

    
    <glyph glyph-name="yonghuxinxi" unicode="&#59066;" d="M511.446391 668.924397c123.450636 0.010233 246.87876 0.065492 370.328373-0.072655 13.9405-0.011256 28.02631-0.122797 41.815361-1.930979 66.526159-8.727779 99.369172-45.001937 99.5636-112.11752 0.512676-166.912497 0.556679-333.830111 0.00614-500.736469-0.239454-72.689532-48.418756-122.365932-120.93535-122.576733-260.845867-0.763386-521.695826-0.835018-782.542716 0.055259-72.300676 0.243547-118.104885 46.543036-118.516254 118.581746-0.945535 166.121482-0.962931 332.266499-0.022513 498.395144 0.457418 80.721463 40.419572 119.766734 121.370255 120.212896C252.157997 669.43605 381.804752 668.918257 511.446391 668.924397L511.446391 668.924397 511.446391 668.924397zM398.887826 101.294402c0 33.014928 1.529843 63.276139-0.388856 93.315292-2.39863 37.492916-31.340799 71.565942-68.585051 74.469062-48.457642 3.771907-97.604992 3.822049-146.100496 0.433882-33.538861-2.342348-59.022255-25.25622-64.87352-58.192354-6.375198-35.831067-4.439102-73.14695-6.130627-110.026906L398.887826 101.293379 398.887826 101.294402 398.887826 101.294402zM343.67841 416.623138c-0.145309 47.839565-37.644365 84.86483-86.213547 85.110423-49.218982 0.25071-87.590917-37.677111-87.502913-86.49598 0.090051-48.5129 39.051411-87.052658 87.525426-86.591147C306.278615 329.107945 343.827813 367.436902 343.67841 416.623138L343.67841 416.623138 343.67841 416.623138zM681.924087 212.667979c45.041846 0 90.061179-0.24457 135.097908 0.099261 25.944905 0.189312 38.260395 10.029424 39.223327 29.833469 1.046842 21.599947-10.485819 34.317597-37.142945 34.562167-90.829681 0.855484-181.681876 0.867764-272.499277-0.105401-26.391067-0.284479-37.805024-13.300934-36.809347-35.029818 0.912789-20.020986 12.665461-29.126364 39.372729-29.288047C593.414241 212.466388 637.672234 212.667979 681.924087 212.667979L681.924087 212.667979 681.924087 212.667979zM682.358993 95.735803l0-0.166799c44.975331 0 89.944522-0.310062 134.919852 0.116657 25.838482 0.25071 38.666648 10.708899 38.990013 29.995151 0.312108 19.09694-12.95608 32.775474-36.96489 32.958646-91.475388 0.706081-182.967148 0.451278-274.441513-0.283456-8.460696-0.072655-20.310581-3.765767-24.481577-9.912767-5.813403-8.562003-11.236925-24.353664-7.109931-31.03483 6.169513-9.969049 20.532639-20.136619 31.897478-20.715811C590.799694 94.390155 636.615159 95.735803 682.358993 95.735803L682.358993 95.735803 682.358993 95.735803zM731.399919 328.473495c28.620851 0 57.242725-0.333598 85.856413 0.099261 24.165376 0.373507 39.307238 12.227486 38.85596 30.518061-0.589424 23.826662-18.690688 29.488615-36.947494 29.800723-59.538001 1.033539-119.109772 1.033539-178.64368-0.028653-22.986527-0.411369-37.811164-14.713097-35.458583-31.379685 3.037173-21.449521 17.929348-29.098735 38.154995-29.037337C672.612001 328.534893 702.006472 328.468378 731.399919 328.473495L731.399919 328.473495 731.399919 328.473495zM731.399919 328.473495"  horiz-adv-x="1024" />

    
    <glyph glyph-name="ditu" unicode="&#58977;" d="M497.21169 802.587494c-102.080933 0-184.846962-82.766029-184.846962-184.849008 0-102.094236 82.766029-184.846962 184.846962-184.846962 102.085026 0 184.850032 82.752726 184.850032 184.846962C682.059676 719.821465 599.293647 802.587494 497.21169 802.587494zM496.47798 186.318732c0 0-265.75876 296.161187-265.75876 442.931948 0 146.759505 118.987998 265.759783 265.75876 265.759783s265.759783-119.000278 265.759783-265.759783C762.237763 482.479919 496.47798 186.318732 496.47798 186.318732zM496.47798 540.664086c-48.927339 0-88.585571 39.659255-88.585571 88.584548 0 48.927339 39.662325 88.586594 88.585571 88.586594 48.927339 0 88.587618-39.659255 88.587618-88.586594C585.065598 580.324364 545.405319 540.664086 496.47798 540.664086zM864.804766 492.110253l92.213191 32.961716 0-491.182882c0 0-189.033307-56.122205-291.429419-84.908832l-357.856317 100.402711L68.615239-31.986249 68.615239 457.071226l88.572268 24.172539c-2.543939 14.811334-3.580548 52.470025-3.580548 68.242244L0.020978 514.005936l0-640.690988 51.200102 16.726963 256.265548 83.228563 358.102934-100.280938 358.38946 100.335173L1023.979022 614.066863l-154.314575-42.860157C868.663654 553.926134 868.233865 518.433782 864.804766 492.110253L864.804766 492.110253 864.804766 492.110253z"  horiz-adv-x="1024" />

    
    <glyph glyph-name="yun" unicode="&#59261;" d="M797.967522 100.930993 216.2773 100.930993c-87.030146 0-152.650679 69.863161-152.650679 162.538887 0 78.464049 46.549176 141.217279 115.010407 157.998477 17.253966 84.009346 91.117231 145.57247 178.020486 145.57247 25.698289 0 51.007721-5.445012 74.190723-15.878642C474.555691 623.607146 551.913547 667.768949 637.50697 667.768949c133.392056 0 241.967914-109.008716 241.967914-243.075131 0-6.839779-0.285502-13.680581-0.839111-20.377096 49.695842-28.858258 81.099063-82.510202 81.099063-140.846842C959.734836 173.830303 887.182426 100.930993 797.967522 100.930993z"  horiz-adv-x="1024" />

    
    <glyph glyph-name="shouji" unicode="&#58901;" d="M761.503 893.094h-519.381c-32.405 0-58.932-26.061-58.932-58.528v-902.302c0-32.156 26.217-58.217 58.932-58.217h519.381c32.345 0 58.591 26.061 58.591 58.217v902.613c0 32.156-26.247 58.217-58.591 58.217M452.879 834.877h98.147c6.78 0 12.315-5.536 12.315-12.253 0-6.749-5.535-12.253-12.315-12.253h-98.147c-6.779 0-12.345 5.504-12.345 12.253-0.001 6.717 5.566 12.253 12.345 12.253M501.642-84.593c-29.637 0-53.988 23.946-53.988 53.678 0 29.357 24.040 53.614 53.988 53.614 29.917 0 53.988-23.884 53.988-53.614 0-29.731-24.069-53.678-53.988-53.678M766.357 92.857c0-16.234-13.186-29.108-29.234-29.108h-470.619c-16.358 0-29.326 13.186-29.326 29.108l-0 639.642c0 16.233 13.279 29.139 29.326 29.139h470.246c16.421 0 29.358-13.185 29.358-29.139v-639.642l0.249 0zM766.357 92.857z"  horiz-adv-x="1024" />

    
    <glyph glyph-name="jiankong" unicode="&#58883;" d="M852.5312 410.3168a330.5984 330.5984 0 0 1-332.4416 331.52 330.5984 330.5984 0 0 1-332.4416-331.52c0-144.2816 92.416-267.0592 221.6448-313.088-70.7584-24.5248-116.992-70.656-116.992-122.8288h446.3104c0 52.224-43.0592 98.304-110.7456 122.8288 132.4032 45.9776 224.6656 168.7552 224.6656 313.088z m-326.2464-233.3184c-95.488 0-175.5136 79.872-175.5136 175.0016s80.0256 174.9504 175.5136 174.9504a175.1552 175.1552 0 0 0 175.5136-174.9504 175.2064 175.2064 0 0 0-175.5136-175.0016zM520.0896 428.6976c-46.1824 0-86.1184-39.936-86.1184-85.9136 0-49.1008 39.936-85.9136 86.1184-85.9136a85.9136 85.9136 0 0 1 0 171.8272z"  horiz-adv-x="1024" />

    
    <glyph glyph-name="daochu" unicode="&#58916;" d="M921.6 691.2H512L409.6 793.6H102.4C46.08 793.6 0.512 747.52 0.512 691.2L0 76.8c0-56.32 46.08-102.4 102.4-102.4h819.2c56.32 0 102.4 46.08 102.4 102.4v512c0 56.337-46.08 102.4-102.4 102.4zM601.941 329.813V187.58H422.06V329.813h-157.39L512 580.13l247.313-250.317H601.941z"  horiz-adv-x="1024" />

    
    <glyph glyph-name="juli" unicode="&#58888;" d="M881.088 657.728c29.216-56.704 45.856-120.96 45.856-189.184 0-105.856-40-202.08-105.248-275.36-1.728-2.944-3.744-5.792-6.24-8.288L551.232-91.808c-1.984-4.288-4.608-8.384-8.16-11.904-12.736-12.736-31.52-15.072-46.912-7.808a41.328 41.328 0 0 0-13.76 9.12c-1.664 1.664-3.008 3.456-4.352 5.312L208.704 184.928c-2.848 2.848-5.024 6.112-6.88 9.472-64.608 73.152-104.16 168.928-104.16 274.176C97.664 697.568 283.296 883.2 512.288 883.2c81.824 0 157.888-24.032 222.144-64.928 5.472-2.08 10.336-5.344 14.432-9.44 47.84-33.312 88.288-76.48 118.496-126.464 7.168-6.176 12.096-14.784 13.696-24.608zM512.096 633.76c-92.544 0-167.584-75.04-167.584-167.584s75.04-167.584 167.584-167.584c92.576 0 167.584 75.04 167.584 167.584S604.64 633.76 512.096 633.76z"  horiz-adv-x="1024" />

    
    <glyph glyph-name="shuju" unicode="&#58902;" d="M1024 429.2H557.4V896c121.9-7.3 236.3-58.4 322.3-144.4 85.9-85.9 137-200.3 144.3-322.4zM120.7 42.299999999999955C42.9 132.20000000000005 0 246.29999999999995 0 364.4 0 496 51.2 619.6 144.3 712.6c83.5 83.5 194.6 134 312.9 142.5v-477.2L120.7 42.299999999999955z m372-170.3c131.5 0 255 51.2 347.9 144.1 83.7 83.7 134.2 194.8 142.6 313.1l-475 1.5-337.9-338c90-77.9 204.1-120.7 322.1-120.7h0.3z"  horiz-adv-x="1024" />

    
    <glyph glyph-name="binaji" unicode="&#58880;" d="M877.056 584.704v138.24c0 34.304-28.16 60.416-60.928 60.416H228.352c-34.816 0-60.928-27.648-60.928-60.416v-700.416c0-34.304 28.16-60.416 60.928-60.416h587.776c32.768 0 60.928 27.648 60.928 60.416v338.432l-194.56-244.224c-3.072-3.072-6.144-3.072-9.728-1.024L572.416 194.55999999999995c-3.072 1.024-3.072 6.144-1.024 7.68l305.664 382.464zM305.664 653.312h369.152c15.36 0 29.696-12.288 29.696-29.696s-12.8-29.696-28.16-29.696H305.664c-15.36 0-29.696 12.288-29.696 29.696s12.288 29.696 29.696 29.696z m130.048-496.128H305.664c-15.36 0-29.696 12.288-29.696 29.696 0 15.36 12.8 29.696 29.696 29.696h130.048c15.36 0 29.696-12.288 29.696-29.696 0-16.384-12.288-29.696-29.696-29.696z m218.624-60.416c3.072-3.072 3.072-7.68-1.024-10.752l-114.688-54.272c-7.68-1.024-17.408 4.608-15.36 14.336l26.624 122.88c1.024 4.608 6.144 6.144 9.728 3.072l94.72-75.264z m-348.672 286.208c-15.36 0-29.696 12.288-29.696 29.696s12.8 29.696 29.696 29.696h286.208c15.36 0 29.696-12.288 29.696-29.696s-12.8-29.696-29.696-29.696H305.664z"  horiz-adv-x="1024" />

    
    <glyph glyph-name="jiankong1" unicode="&#58889;" d="M947.346481 453.258375c0 245.57569-197.734793 442.002111-444.903283 442.002111S57.483029 698.720293 57.483029 453.201489c0-192.387534 123.669574-356.047775 296.602188-417.484362-94.714738-32.652408-156.549525-94.145881-156.549525-163.717127h597.30015c0 69.571246-57.682129 131.064719-148.244208 163.717127 177.142159 61.379701 300.697961 225.039942 300.697961 417.484362z m-436.654853-311.051164c-127.765346 0-234.881173 106.433198-234.881173 233.345258 0 126.798289 107.115827 233.231487 234.881173 233.231487 131.804233 0 234.881173-106.433198 234.881174-233.231487a234.027887 234.027887 0 0 0-234.938059-233.345258z m-8.24843 335.512027c-61.834787 0-115.307372-53.13127-115.307372-114.510972 0-65.418588 53.472585-114.567857 115.307372-114.567857 65.987445 0 115.250486 53.188156 115.250486 114.567857 0 65.361702-53.472585 114.510972-115.250486 114.510972z"  horiz-adv-x="1024" />

    
    <glyph glyph-name="taiyang" unicode="&#58891;" d="M288.426667 689.493333l-76.8 76.373334-60.16-60.16 76.373333-76.373334 60.586667 60.16zM170.666667 448H42.666667v-85.333333h128v85.333333z m384 424.533333h-85.333334V746.666667h85.333334V872.533333z m317.866666-166.826666l-60.16 60.16-76.373333-76.373334 60.16-60.16 76.373333 76.373334z m-136.96-584.533334l76.373334-76.8 60.16 60.16-76.8 76.373334-59.733334-59.733334zM853.333333 448v-85.333333h128v85.333333h-128z m-341.333333 213.333333c-141.226667 0-256-114.773333-256-256s114.773333-256 256-256 256 114.773333 256 256-114.773333 256-256 256z m-42.666667-723.2h85.333334V64h-85.333334v-125.866667z m-317.866666 166.826667l60.16-60.16 76.373333 76.8-60.16 60.16-76.373333-76.8z"  horiz-adv-x="1024" />

    
    <glyph glyph-name="delete" unicode="&#58881;" d="M512 275.456l253.3376-253.3376a76.6976 76.6976 0 1 1 108.544 108.544L620.6464 384l253.2352 253.3376a76.6976 76.6976 0 1 1-108.544 108.544L512 492.6464 258.6624 745.8815999999999a76.6976 76.6976 0 1 1-108.544-108.544L403.3536 384 150.1184 130.66240000000005a76.6976 76.6976 0 1 1 108.544-108.544L512 275.35360000000003z"  horiz-adv-x="1024" />

    
    <glyph glyph-name="mima" unicode="&#58896;" d="M821.378449 510.762538v98.597381C821.378449 767.626183 686.056798 896 519.050957 896S216.736354 767.626183 216.736354 609.359919v-96.960322C143.00423 507.359517 84.856395 449.044109 84.856395 377.812689v-370.929305C84.856395-67.583484 148.547029-128 227.125881-128h569.748238c78.630413 0 142.269486 60.403625 142.269486 134.883384V377.812689c0 66.590937-50.851964 121.915811-117.752266 132.924068zM582.12286 165.123867v-124.919235H475.430413v122.869688c-35.731722 17.633837-60.12004 53.056193-60.12004 93.879557 0 58.405639 49.910977 105.699899 111.539174 105.699899s111.539174-47.345821 111.539174-105.699899c0-39.328097-22.635247-73.654783-56.240081-91.868681zM725.500906 512.773414H311.544008V591.790534c0 108.368177 92.642095 196.292447 207.01712 196.292447S725.500906 700.158711 725.500906 591.790534z m0 0"  horiz-adv-x="1024" />

    
    <glyph glyph-name="mytool" unicode="&#58882;" d="M725.95640563 704.82170135l0 122.34800648c0.95661614 29.12240382-33.63418523 61.17400323-61.17400323 61.17400323L328.32750211 888.34371244c-28.19687316 0-61.17400323-30.84063929-61.17400325-61.17400323l0-122.34800648L83.63290038 704.82170135c-45.70140149 0-91.76029855-48.76201034-91.76029857-91.75888595l0-152.93430181 1039.95382141 0L1031.8264246 613.0628154c0 45.53749156-46.34291391 91.75888595-91.75888597 91.75888595L725.95640563 704.82170135zM634.19469447 704.82170135L358.91379743 704.82170135l0 61.17400324c0 18.56429605 12.09830315 30.58629532 30.58629532 30.58629533l214.10689243 0c18.475276 0 30.58629532-12.02341187 30.58629532-30.58629533L634.1932805 704.82170135zM510.65409584 277.71289981999996c60.24847396 0 62.36800801 74.04664325 62.36800801 121.24161054L420.08780067 398.95450897c1.03009345-37.97923147 1.19541739-122.34659389 61.17400323-122.34659386C481.26180528 276.60791511 498.04851732 277.71289981999996 510.65409584 277.71289981999996zM634.19469447 398.95450897c0 0 48.47940469-183.52059712-137.65528565-183.52059712-192.18384193 0-137.6256114 183.52059712-137.62561139 183.52059712L-8.12881078 398.95450897l0-428.21519884c0-46.9858403 41.25037985-91.76029855 91.76029856-91.76029855l856.43322427 0c45.94020274 0 91.75888595 39.57877401 91.75888596 91.76029855L1031.82359801 398.95450897 634.19469447 398.95450897z"  horiz-adv-x="1024" />

    
    <glyph glyph-name="zengjia" unicode="&#58936;" d="M416 480H64.064C28.448 480 0 451.36 0 416.064v-64.128C0 316.736 28.672 288 64.064 288H416v-351.936c0-35.616 28.64-64.064 63.936-64.064h64.128c35.2 0 63.936 28.672 63.936 64.064V288h351.936c35.616 0 64.064 28.64 64.064 63.936v64.128c0 35.2-28.672 63.936-64.064 63.936H608V831.936C608 867.552 579.36 896 544.064 896h-64.128C444.736 896 416 867.328 416 831.936V480z"  horiz-adv-x="1024" />

    
    <glyph glyph-name="fangxiang" unicode="&#58886;" d="M512 896C230.4 896 0 665.6 0 384s230.4-512 512-512 512 230.4 512 512S793.6 896 512 896z m-42.666667-128c0 25.6 17.066667 42.666667 42.666667 42.666667s42.666667-17.066667 42.666667-42.666667v-42.666667c0-25.6-17.066667-42.666667-42.666667-42.666666s-42.666667 17.066667-42.666667 42.666666V768zM170.666667 341.333333H128c-25.6 0-42.666667 17.066667-42.666667 42.666667s17.066667 42.666667 42.666667 42.666667h42.666667c25.6 0 42.666667-17.066667 42.666666-42.666667s-17.066667-42.666667-42.666666-42.666667z m384-341.333333c0-25.6-17.066667-42.666667-42.666667-42.666667s-42.666667 17.066667-42.666667 42.666667v42.666667c0 25.6 17.066667 42.666667 42.666667 42.666666s42.666667-17.066667 42.666667-42.666666v-42.666667z m179.2 550.4l-89.6-273.066667c-4.266667-12.8-12.8-21.333333-25.6-25.6l-273.066667-89.6c-4.266667 0-8.533333-4.266667-12.8-4.266666-12.8 0-21.333333 4.266667-29.866667 12.8-12.8 12.8-17.066667 29.866667-8.533333 42.666666L384 486.4c0 12.8 12.8 25.6 25.6 29.866667L682.666667 605.866667c17.066667 4.266667 34.133333 0 42.666666-8.533334 8.533333-12.8 12.8-29.866667 8.533334-46.933333zM896 341.333333h-42.666667c-25.6 0-42.666667 17.066667-42.666666 42.666667s17.066667 42.666667 42.666666 42.666667h42.666667c25.6 0 42.666667-17.066667 42.666667-42.666667s-17.066667-42.666667-42.666667-42.666667zM567.466667 328.533333l59.733333 170.666667-170.666667-59.733333z"  horiz-adv-x="1024" />

    
    <glyph glyph-name="jianzhu" unicode="&#59265;" d="M960-64H1024V-128H0v64h64V896H512v-960h64V640h384v-704z m-768 768V640h192V704H192z m0-256V384h192v64H192z m0-256V128h192v64H192z m512 256V384h128v64h-128z m0-256V128h128v64h-128z"  horiz-adv-x="1024" />

    
    <glyph glyph-name="xiazai" unicode="&#59002;" d="M118.153846 29.538462h787.692308a78.769231 78.769231 0 0 0 0-157.538462H118.153846a78.769231 78.769231 0 0 0 0 157.538462z m15.202462 389.12c-33.240615 29.144615-8.428308 77.193846 39.778461 77.193846H281.206154c30.326154 0 54.902154 20.48 54.902154 45.686154V850.313846c0 25.206154 24.576 45.686154 54.902154 45.686154h241.033846c30.326154 0 54.902154-20.48 54.902154-45.686154V541.538462c0-25.206154 24.576-45.686154 54.902153-45.686154h108.937847c48.285538 0 73.019077-48.049231 39.699692-77.193846L551.699692 122.486154a62.936615 62.936615 0 0 0-79.478154 0L133.356308 418.658462z"  horiz-adv-x="1024" />

    
    <glyph glyph-name="fanye" unicode="&#58892;" d="M303.786667 503.637333L213.333333 413.184 303.786667 322.56l392.533333-392.362667 90.453333 90.538667-392.362666 392.362667L786.773333 805.376 696.32 896z"  horiz-adv-x="1024" />

    
    <glyph glyph-name="weixing" unicode="&#58924;" d="M620.8-64h-64v83.2c0 19.2-12.8 32-32 32s-32-12.8-32-32V-64h-57.6c-19.2 0-32-12.8-32-32s12.8-32 32-32h185.6c19.2 0 32 12.8 32 32s-12.8 32-32 32zM793.6 627.2c19.2 19.2 19.2 57.6 0 76.8-19.2 19.2-57.6 19.2-76.8 0-19.2-19.2-19.2-57.6 0-76.8 19.2-19.2 57.6-19.2 76.8 0zM972.8 224l-38.4 38.4-268.8 268.8 19.2 19.2c12.8 12.8 12.8 32 0 44.8-12.8 12.8-32 12.8-44.8 0l-19.2-12.8L345.6 851.2 313.6 889.6c-12.8 6.4-38.4 6.4-51.2 0-12.8-12.8-12.8-32 0-44.8l12.8-12.8c-64-89.6-102.4-192-102.4-300.8 0-121.6 44.8-230.4 128-313.6 83.2-83.2 198.4-128 313.6-128 108.8 0 211.2 38.4 288 108.8l19.2-19.2c6.4-6.4 12.8-6.4 25.6-6.4 6.4 0 19.2 0 25.6 6.4 12.8 12.8 12.8 32 0 44.8zM819.2 211.2L480 550.4c-6.4 6.4-19.2 6.4-32 0-6.4-6.4-6.4-19.2 0-32l326.4-326.4c-51.2-25.6-108.8-38.4-166.4-38.4-102.4 0-198.4 38.4-268.8 108.8-64 76.8-102.4 172.8-102.4 268.8 0 57.6 12.8 115.2 38.4 166.4l96-96c0-6.4 6.4-6.4 12.8-6.4s12.8 0 12.8 6.4c6.4 6.4 6.4 19.2 0 32L294.4 736c12.8 12.8 19.2 32 32 44.8l537.6-537.6c-12.8-12.8-25.6-19.2-44.8-32z"  horiz-adv-x="1024" />

    
    <glyph glyph-name="xiugai" unicode="&#58893;" d="M772.129019 515.363853L589.609005 699.611792 199.482073 296.301437l-68.029024-257.396739v-0.44798l248.309136 71.484872 392.366834 405.422263zM742.370321 857.36489L644.5826 756.441306l183.159986-183.54397 94.843851 98.107708a135.034092 135.034092 0 0 1 0 186.423843 124.538551 124.538551 0 0 1-180.216116 0zM64-5.765348h895.960802V-128H64v122.234652z"  horiz-adv-x="1024" />

    
    <glyph glyph-name="taifeng" unicode="&#58884;" d="M414.40000001 684.8c32 10.5 64.6 16.8 97.19999999 19 67.6 7.5 135.1-6.2 191.70000001-41.5 26.1-14.5 50-32.6 71.09999999-53.7 138-138 125.8-373.8-27.2-526.7-107.5-107.6-255.99999999-145.6-382.7-110.7 84.8 2.69999999 171.8 38.6 239.9 106.7 1.7 1.7 3.5 3.5 5.19999999 5.3-32-10.5-64.6-16.8-97.19999999-19-67.6-7.4-135.1 6.2-191.70000001 41.5-26.1 14.5-50 32.6-71.09999999 53.7-138 138-125.8 373.8 27.2 526.7 107.5 107.6 255.99999999 145.6 382.7 110.7-84.8-2.69999999-171.8-38.6-239.9-106.7-1.7-1.8-3.5-3.5-5.19999999-5.3z m-0.80000001-209c-54.5-54.5-54.5-142.9 0-197.5 54.5-54.5 142.9-54.5 197.5-1e-8 54.5 54.5 54.5 142.9 0 197.50000001-54.5 54.5-142.9 54.5-197.5 0z m0 0"  horiz-adv-x="1024" />

    
    <glyph glyph-name="arrow-top" unicode="&#58887;" d="M175.54699999 167.39166667999996l-58.261 56.285 392.021 393.996 392.021-393.996-58.261-56.285-333.761 331.78600001z"  horiz-adv-x="1024" />

    
    </font>
</defs>
</svg>
